Все раздачи Раздачи по тегам Правила Информация Контакты

Когда мы познакомились / When We First Met (2018) WEBRip-AVC ivanes20031987 |

Когда мы познакомились / When We First Met (2018) WEBRip-AVC ivanes20031987 |

Информация о фильме
Название: Когда мы познакомились
Оригинальное название: When We First Met
Год выхода: 2018
Жанр: комедия
Режиссер: Эри Сандел
В ролях: Александра Даддарио, Робби Амелл, Адам Дивайн, Норин ДеВулф, Шелли Хенниг, Эндрю Бэчелор, Тони Кавалеро, Тени Интриаго, Крис Уайлд, Дин Уэст
О фильме:
Парню по имени Ной посчастливилось встретить идеальную девушку и провести с ней идеальную ночь. Но после этого на него был повешен ярлык «просто друг», и лишь спустя долгих три года Ною выпадает шанс разобраться, в чём он оплошал. Отправившись в прошлое, Ной снова и снова переживает незабываемое свидание в надежде на другой финал.
Страна: США
Продолжительность: 01:37:02
Перевод: Профессиональный (многоголосый закадровый) Jaskier
Файл
Кодек: H.264
Качество: WEBRip-AVC / WEBRip 1080p
Видео: MPEG-4 AVC, 960x540 (16:9), 23.976 fps, ~1636 kbps avg, 0.132 bit/pixel
Звук: 48 kHz, AC3 Dolby Digital, 3/2 (L,C,R,l,r) + LFE ch, ~384 kbps avg
Субтитры: Нет
Семпл
MediaInfo

Complete name : D:РаздачаКогда мы познакомились (2018) WEBRip-AVC_ivanes20031987.mkv
Format : Matroska
Format version : Version 2
File size : 1.40 GiB
Duration : 1 h 37 min
Overall bit rate : 2 061 kb/s
Movie name : Когда мы познакомились (2018) WEBRip-AVC_ivanes20031987
Encoded date : UTC 2018-06-12 13:32:44
Writing application : mkvmerge v4.4.0 ('Die Wiederkehr') сборка от Jan 3 2011 21:40:45
Writing library : libebml v1.0.0 + libmatroska v1.0.0
Cover : Yes
Attachments : cover.jpg
Video
ID : 1
Format : AVC
Format/Info : Advanced Video Codec
Format profile : High@L4.1
Format settings, CABAC : Yes
Format settings, RefFrames : 14 frames
Codec ID : V_MPEG4/ISO/AVC
Duration : 1 h 37 min
Bit rate : 1 636 kb/s
Width : 960 pixels
Height : 540 pixels
Display aspect ratio : 16:9
Frame rate mode : Constant
Frame rate : 23.976 (24000/1001) FPS
Color space : YUV
Chroma subsampling : 4:2:0
Bit depth : 8 bits
Scan type : Progressive
Bits/(Pixel*Frame) : 0.132
Stream size : 1.11 GiB (79%)
Title : Rip by ivanes20031987
Writing library : x264 core 155 r2901 7d0ff22
Encoding settings : cabac=1 / ref=14 / deblock=1:-3:-3 / analyse=0x3:0x113 / me=umh / subme=10 / psy=1 / psy_rd=1.00:0.00 / mixed_ref=1 / me_range=32 / chroma_me=1 / trellis=2 / 8x8dct=1 / cqm=0 / deadzone=21,11 / fast_pskip=0 / chroma_qp_offset=-2 / threads=12 / lookahead_threads=3 / sliced_threads=0 / nr=0 / decimate=0 / interlaced=0 / bluray_compat=0 / constrained_intra=0 / bframes=14 / b_pyramid=2 / b_adapt=2 / b_bias=0 / direct=1 / weightb=1 / open_gop=0 / weightp=2 / keyint=240 / keyint_min=23 / scenecut=40 / intra_refresh=0 / rc_lookahead=60 / rc=crf / mbtree=0 / crf=18.1 / qcomp=0.60 / qpmin=0 / qpmax=69 / qpstep=4 / vbv_maxrate=50000 / vbv_bufsize=62500 / crf_max=0.0 / nal_hrd=none / filler=0 / ip_ratio=1.40 / pb_ratio=1.30 / aq=1:1.00
Default : Yes
Forced : No
Audio
ID : 2
Format : AC-3
Format/Info : Audio Coding 3
Format settings, Endianness : Big
Codec ID : A_AC3
Duration : 1 h 37 min
Bit rate mode : Constant
Bit rate : 384 kb/s
Channel(s) : 6 channels
Channel positions : Front: L C R, Side: L R, LFE
Sampling rate : 48.0 kHz
Frame rate : 31.250 FPS (1536 SPF)
Bit depth : 16 bits
Compression mode : Lossy
Stream size : 267 MiB (19%)
Title : Jaskier
Language : Russian
Service kind : Complete Main
Default : Yes
Forced : No

Скриншоты
Автор Bot
Категория Зарубежные фильмы
InfoHash 1B50D738B8E984D217360B9C3AEAE5734021F7DC
Файлы (1)
Показать файлы
Трекера
Показать трекера
Похожие раздачи

    Нет комментариев

Войти на сайт

Статистика

  • Всего торрентов: 80431
  • Объёмом: 474.8 Тб
  • Сидов: 2167381
  • Личеров: 159762