Все раздачи Раздачи по тегам Правила Информация Контакты

Крокодил / Crocodile (2000) WEB-DL 1080p | P2

Крокодил / Crocodile (2000) WEB-DL 1080p | P2

Название: Крокодил
Оригинальное название: Crocodile
Год выпуска: 2000
Выпущено: США, Flat Dog Corporation, Nu-Image Films
Жанр: Ужасы, триллер
Режиссер: Тоуб Хупер
В ролях: Марк МакЛахлан, Кэйтлин Мартин, Крис Солари, Д.В. Райзер, Джули Минтц, Соммер Найт, Ретт Джордан, Грег Вейн, Харрисон Янг, Терренс Эванс
О фильме: Компания студентов, решив отдохнуть и позагорать, отправляется на озеро. Во время речного путешествия к пункту назначения один из друзей находит в болотных топях гнездо с кладкой гигантских яиц. Прихватив одно из них на память, он разоряет гнездо и возвращается на лодку, к друзьям. Он и не подозревает, что своим безрассудным поступком подписал всей компании смертный приговор: ведь гнездо принадлежало гигантскому крокодилу. А пока, наслаждаясь речными пейзажами, веселые студенты и не подозревают о том ужасе и страхе, которые поджидают их за ближайшим поворотом реки.
Продолжительность: 01:34:07
Перевод: Профессиональный двухголосый
Субтитры: Русские, английские
Навигация по главам: Есть
Файл
Качество: WEB-DL 1080p
Видео: MPEG-4 AVC, 10000 Кбит/сек, 1920x1080, 29,970 кадров/сек
Аудио #1: AC3, 6 ch, 448 Кбит/сек | Русский, профессиональный (двухголосый закадровый) R5
Аудио #2: AC3, 2 ch, 192 Кбит/сек | Русский, профессиональный (двухголосый закадровый) R5
Аудио #3: AAC, 2 ch, 256 Кбит/сек | Английский, оригинал

Скриншоты

Инфо-файл
Общее
Уникальный идентификатор : 178022289903466004430979675542252605125 (0x85EDD88C3449AEFBA04A7B656192CEC5)
Полное имя : Крокодил.2000.WEB-DL.1080p.mkv
Формат : Matroska
Версия формата : Version 2
Размер файла : 7,16 Гбайт
Продолжительность : 1 ч. 34 м.
Общий поток : 10,9 Мбит/сек
Дата кодирования : UTC 2018-06-12 11:23:30
Программа кодирования : mkvmerge v5.8.0 ('No Sleep / Pillow') built on Sep 2 2012 15:37:04
Библиотека кодирования : libebml v1.2.3 + libmatroska v1.3.0
Видео
Идентификатор : 1
Формат : AVC
Формат/Информация : Advanced Video Codec
Профиль формата : High@L4
Настройки формата : CABAC / 4 Ref Frames
Параметр CABAC формата : Да
Параметр RefFrames формата : 4 кадра
Идентификатор кодека : V_MPEG4/ISO/AVC
Продолжительность : 1 ч. 34 м.
Вид битрейта : Постоянный
Номинальный битрейт : 10000 Кбит/сек
Ширина : 1920 пикселей
Высота : 1080 пикселей
Соотношение сторон : 16:9
Режим частоты кадров : Постоянный
Частота кадров : 29,970 (30000/1001) кадров/сек
Стандарт вещания : NTSC
Цветовое пространство : YUV
Субдискретизация насыщенности : 4:2:0
Битовая глубина : 8 бит
Тип развёртки : Прогрессивная
Бит/(Пиксели*Кадры) : 0.161
Язык : English
Default : Да
Forced : Нет
Цветовой диапазон : Limited
Основные цвета : BT.709
Характеристики трансфера : BT.709
Коэффициенты матрицы : BT.709
Аудио #1
Идентификатор : 2
Формат : AC-3
Формат/Информация : Audio Coding 3
Идентификатор кодека : A_AC3
Продолжительность : 1 ч. 34 м.
Вид битрейта : Постоянный
Битрейт : 448 Кбит/сек
Каналы : 6 каналов
Расположение каналов : Front: L C R, Side: L R, LFE
Частота : 48,0 КГц
Частота кадров : 31,250 кадров/сек (1536 SPF)
Битовая глубина : 16 бит
Метод сжатия : С потерями
Размер потока : 302 Мбайт (4%)
Заголовок : DVO | R5, 5.1
Язык : Russian
По умолчанию : Да
Принудительно : Нет
Аудио #2
Идентификатор : 3
Формат : AC-3
Формат/Информация : Audio Coding 3
Идентификатор кодека : A_AC3
Продолжительность : 1 ч. 34 м.
Вид битрейта : Постоянный
Битрейт : 192 Кбит/сек
Каналы : 2 канала
Расположение каналов : Front: L R
Частота : 48,0 КГц
Частота кадров : 31,250 кадров/сек (1536 SPF)
Битовая глубина : 16 бит
Метод сжатия : С потерями
Размер потока : 129 Мбайт (2%)
Заголовок : DVO | R5, 2.0
Язык : Russian
По умолчанию : Нет
Принудительно : Нет
Аудио #3
Идентификатор : 6
Формат : AAC
Формат/Информация : Advanced Audio Codec
Профиль формата : LC
Идентификатор кодека : A_AAC-2
Продолжительность : 1 ч. 34 м.
Каналы : 2 канала
Расположение каналов : Front: L R
Частота : 48,0 КГц
Частота кадров : 46,875 кадров/сек (1024 SPF)
Метод сжатия : С потерями
Задержка видео : 5 мс.
Заголовок : Original
Язык : English
По умолчанию : Нет
Принудительно : Нет
Текст #1
Идентификатор : 4
Формат : UTF-8
Идентификатор кодека : S_TEXT/UTF8
Идентификатор кодека/Информация : UTF-8 Plain Text
Язык : Russian
По умолчанию : Нет
Принудительно : Нет
Текст #2
Идентификатор : 5
Формат : UTF-8
Идентификатор кодека : S_TEXT/UTF8
Идентификатор кодека/Информация : UTF-8 Plain Text
Язык : English
По умолчанию : Нет
Принудительно : Нет
Меню
00:00:00.000 : en:Chapter 1
00:11:41.136 : en:Chapter 2
00:21:45.156 : en:Chapter 3
00:34:57.323 : en:Chapter 4
00:44:30.979 : en:Chapter 5
00:49:14.554 : en:Chapter 6
00:57:04.649 : en:Chapter 7
01:08:50.604 : en:Chapter 8
01:14:45.750 : en:Chapter 9
01:21:38.913 : en:Chapter 10
01:24:56.277 : en:Chapter 11
01:29:52.865 : en:Chapter 12

Дополнительная информация
• Исходник видео WEB-DL Amazon.
Дорожки #1 и #2 - озвучивание одинаковое.

Сборка:
Автор Bot
Категория Зарубежные фильмы
InfoHash 10137990A5A4AF2605F048DEB18B0E56AC94341E
Файлы (1)
Показать файлы
Трекера
Показать трекера
Похожие раздачи

    Нет комментариев

Войти на сайт

Статистика

  • Всего торрентов: 93290
  • Объёмом: 558.1 Тб
  • Сидов: 3053588
  • Личеров: 178431