Все раздачи Раздачи по тегам Правила Информация Контакты

Байкеры / Bajkeri (2017) WEBRip 720p | GreenРай Studio

Байкеры / Bajkeri (2017) WEBRip 720p | GreenРай Studio

Информация о фильме
Год выхода: 2017
Наименование: Байкеры
Оригинальное наименование: Bajkeri
Страна: Чехия
Жанр: комедия
Режиссер постановщик: Мартин Куп
В главных ролях: Адам Мишик, Гана Вагнерова, Ян Коминек, Войтех Мачута, Селста Бакингхэм, Эстер Лубадика, Юлия Шаркова, Павел Нечас, Томаш Матонога, Михал Суханек, Вайлав Постранецки
О фильме: Три взрослых парня не вылезают из интернета и совершенно оторваны от внешнего мира. Наконец разъяренный отец одного из них, Давида, отправляет его на велосипеде, наездить 200 км под присмотром своей подружки Терезы. Бывшая жена выпирает с ними пасынка, Яхима. В ужасе от общения с этими двоими, Давид тащит с собой друга Сашу. И вот эта странная троица оказывается в палатках, где не только нет сигнала, но и негде подзарядить мобильник. И что еще ужаснее для социально зависимых парней, в том же кемпинге ночует группа реальных девчонок под присмотром чокнутого тренера, и трасса у них та же!

Файл
Качество: WEBRip 720p
Видео данные: MKV, 1280x610 (2.098), 23.976 fps, 3437 Кбит/с
Аудио данные: AAC, 2 ch, 192 Кбит/с
Перевод: Любительский многоголосый (GreenРай Studio)
Продолжительность: 01:33:34
Медиаинфо
General
Unique ID : 96783299242984646431495760185952129925 (0x48CFC910D14B04FD33714A2EB2915385)
Complete name : D:ГРИНРАЙBajkeri.2017.P.WEB-DL.720p.mkv
Format : Matroska
Format version : Version 4 / Version 2
File size : 2.37 GiB
Duration : 1 h 33 min
Overall bit rate : 3 629 kb/s
Encoded date : UTC 2018-06-12 17:13:10
Writing application : mkvmerge v21.0.0 ('Tardigrades Will Inherit The Earth') 64-bit
Writing library : libebml v1.3.5 + libmatroska v1.4.8
Video
ID : 1
Format : AVC
Format/Info : Advanced Video Codec
Format profile : High@L3.1
Format settings : CABAC / 1 Ref Frames
Format settings, CABAC : Yes
Format settings, RefFrames : 1 frame
Format settings, GOP : M=1, N=30
Codec ID : V_MPEG4/ISO/AVC
Duration : 1 h 33 min
Bit rate : 3 437 kb/s
Width : 1 280 pixels
Height : 610 pixels
Display aspect ratio : 2.098
Frame rate mode : Constant
Frame rate : 23.976 (24000/1001) FPS
Color space : YUV
Chroma subsampling : 4:2:0
Bit depth : 8 bits
Scan type : Progressive
Bits/(Pixel*Frame) : 0.184
Stream size : 2.25 GiB (95%)
Language : English
Default : Yes
Forced : No
Audio
ID : 2
Format : AAC
Format/Info : Advanced Audio Codec
Format profile : LC
Codec ID : A_AAC-2
Duration : 1 h 33 min
Bit rate : 192 kb/s
Channel(s) : 2 channels
Channel positions : Front: L R
Sampling rate : 48.0 kHz
Frame rate : 46.875 FPS (1024 SPF)
Compression mode : Lossy
Stream size : 127 MiB (5%)
Language : English
Default : Yes
Forced : No

Внимание, имеется видео и аудио реклама от спонсора показа
Скриншоты

Релиз от:
Автор Bot
Категория Зарубежные фильмы
InfoHash 7BB5D42F486BE711D8D97A711C48A109BEAE780A
Файлы (1)
Показать файлы
Трекера
Показать трекера
Похожие раздачи
Название Добавлен Размер Сид Лич
Байкеры / Bajkeri (2017) WEBRip | GreenРай Studio 13/06/2018 1.4 Гб 9 3
Байкеры / Bajkeri (2017) DVDRip | L1 11/04/2018 1.4 Гб 0 0

    Нет комментариев

Войти на сайт

Статистика

  • Всего торрентов: 80795
  • Объёмом: 477.0 Тб
  • Сидов: 2234627
  • Личеров: 171804