Все раздачи Раздачи по тегам Правила Информация Контакты

Полночное солнце / Midnight Sun (2018) BDRemux 1080p | iTunes

Полночное солнце / Midnight Sun (2018) BDRemux 1080p | iTunes

Информация о фильме
Название: Полночное солнце
Оригинальное название: Midnight Sun
Год выхода: 2018
Жанр: Драма, мелодрама
Режиссер: Скотт Спир
В ролях: Белла Торн, Патрик Шварценеггер, Роб Риггл, Куинн Шепард, Кен Тремблетт, Джен Гриффин, Николас Кумбе, Тиера Сковбай, Пол МакДжиллион, Остин Обиаджунва

О фильме: Ночами 17-летняя Кэти сочиняет свои красивые песни под гитару, а днем вынуждена скрываться во мраке: её нежная кожа не выносит солнечного света. Но однажды в полночь она знакомится с Чарли, веселым парнем с копной рыжих, как солнце, волос и очаровательной улыбкой. Внезапная и страстная любовь яркой вспышкой озаряет жизнь больной девушки. И теперь ради возлюбленного она готова сгореть в лучах света безумного чувства...
Страна: США
Студия: Boies/Schiller Film Group, Мосфильм-Мастер
Продолжительность: 01:31:53
Перевод: Дублированный | iTunes
Качество: BDRemux 1080p
Видео: MPEG-4 AVC, 1920x1080, 34.4 Mbit/s, 23.976 fps
Звук:
Аудио #01: 48 kHz, AC3, 5.1, 384 Kbps | iTunes | RUS |
Аудио #02: 48 kHz, DTS-HD MA, 5.1, 3546 Kbps | Оригинал | ENG |
Субтитры: Английские

MI
General
Unique ID : 172942649254721160566533202779872970115 (0x821B8AED7A77AA29235048128BAC4583)
Complete name : D:Video111Midnight.Sun.2018.BDREMUX.1080p.ExKinoRay.mkv
Format : Matroska
Format version : Version 4 / Version 2
File size : 24.6 GiB
Duration : 1 h 31 min
Overall bit rate mode : Variable
Overall bit rate : 38.3 Mb/s
Movie name : Midnight Sun 2018 from ExKinoRay
Encoded date : UTC 2018-06-13 12:21:35
Writing application : mkvmerge v23.0.0 ('The Bride Said No') 64-bit
Writing library : libebml v1.3.6 + libmatroska v1.4.9
Video
ID : 1
Format : AVC
Format/Info : Advanced Video Codec
Format profile : High@L4.1
Format settings : CABAC / 4 Ref Frames
Format settings, CABAC : Yes
Format settings, ReFrames : 4 frames
Codec ID : V_MPEG4/ISO/AVC
Duration : 1 h 31 min
Bit rate mode : Variable
Bit rate : 34.4 Mb/s
Maximum bit rate : 37.0 Mb/s
Width : 1 920 pixels
Height : 1 080 pixels
Display aspect ratio : 16:9
Frame rate mode : Constant
Frame rate : 23.976 (24000/1001) FPS
Color space : YUV
Chroma subsampling : 4:2:0
Bit depth : 8 bits
Scan type : Progressive
Bits/(Pixel*Frame) : 0.692
Stream size : 22.1 GiB (90%)
Language : English
Default : Yes
Forced : No
Audio #1
ID : 2
Format : AC-3
Format/Info : Audio Coding 3
Codec ID : A_AC3
Duration : 1 h 31 min
Bit rate mode : Constant
Bit rate : 384 kb/s
Channel(s) : 6 channels
Channel positions : Front: L C R, Side: L R, LFE
Sampling rate : 48.0 kHz
Frame rate : 31.250 FPS (1536 SPF)
Bit depth : 16 bits
Compression mode : Lossy
Stream size : 252 MiB (1%)
Title : iTunes
Language : English
Service kind : Complete Main
Default : Yes
Forced : Yes
Audio #2
ID : 3
Format : DTS
Format/Info : Digital Theater Systems
Format profile : MA / Core
Codec ID : A_DTS
Duration : 1 h 31 min
Bit rate mode : Variable / Constant
Bit rate : 3 546 kb/s / 1 509 kb/s
Channel(s) : 6 channels
Channel positions : Front: L C R, Side: L R, LFE
Sampling rate : 48.0 kHz
Frame rate : 93.750 FPS (512 SPF)
Bit depth : 24 bits
Compression mode : Lossless / Lossy
Stream size : 2.28 GiB (9%)
Title : Original
Language : English
Default : No
Forced : No
Text #1
ID : 4
Format : UTF-8
Codec ID : S_TEXT/UTF8
Codec ID/Info : UTF-8 Plain Text
Duration : 1 h 25 min
Bit rate : 62 b/s
Count of elements : 1203
Stream size : 39.1 KiB (0%)
Title : Full
Language : English
Default : No
Forced : No
Text #2
ID : 5
Format : UTF-8
Codec ID : S_TEXT/UTF8
Codec ID/Info : UTF-8 Plain Text
Duration : 1 h 26 min
Bit rate : 75 b/s
Count of elements : 1418
Stream size : 47.9 KiB (0%)
Title : SDH
Language : English
Default : No
Forced : No
Menu
00:00:00.000 : en:Chapter 1
00:04:00.990 : en:Chapter 2
00:09:32.113 : en:Chapter 3
00:14:23.988 : en:Chapter 4
00:20:52.584 : en:Chapter 5
00:24:16.204 : en:Chapter 6
00:30:14.187 : en:Chapter 7
00:34:13.760 : en:Chapter 8
00:37:46.806 : en:Chapter 9
00:42:48.357 : en:Chapter 10
00:47:28.095 : en:Chapter 11
00:53:23.450 : en:Chapter 12
00:57:34.242 : en:Chapter 13
01:01:31.813 : en:Chapter 14
01:04:15.393 : en:Chapter 15
01:07:27.209 : en:Chapter 16
01:10:06.076 : en:Chapter 17
01:15:36.865 : en:Chapter 18
01:19:39.775 : en:Chapter 19
01:26:21.176 : en:Chapter 20

Релиз от: Автор релиза:
Подпишись на меня, кликни по картинке [b]> : [/b]
Автор Bot
Категория Зарубежные фильмы
InfoHash C43D871EC9867033BE92042DD37FFE68F61C0368
Файлы (1)
Показать файлы
Трекера
Показать трекера
Похожие раздачи

    Нет комментариев

Войти на сайт

Статистика

  • Всего торрентов: 93290
  • Объёмом: 558.1 Тб
  • Сидов: 3053588
  • Личеров: 178431