Все раздачи Раздачи по тегам Правила Информация Контакты

Убийцы леди / The Ladykillers (1955) BDRip-AVC | P

Убийцы леди / The Ladykillers (1955) BDRip-AVC | P

Информация о фильме
Название: Убийцы леди
Оригинальное название: The Ladykillers
Год выхода: 1955
Жанр: Комедия, триллер, криминал
Режиссер: Александр Маккендрик
В ролях:Кэти Джонсон, Алек Гиннесс / Alec Guinness, Сесил Паркер, Херберт Лом, Питер Селлерс, Дэнни Грин, Джек Уорнер, Филип Стейнтон, Фрэнки Ховерд
Описание:
Профессор музыки мистер Маркус снял комнату в доме старенькой миссис Луизы Александры Уилберфорс. Старушке и в голову не могло прийти, что липовый профессор не знает ни одной ноты, а над ней самой нависла опасность...

Страна: Великобритания
Студия: Ealing Studios,The Rank Organisation Film Productions Ltd.
Продолжительность: 01:30:41
Перевод: Профессиональный многоголосый [НТВ]
Субтитры: Нет
Файл
Кодек: x264
Качество: BDRip-AVC [BDRemux 1080p_HDclub]
Видео: 798x582 / ~3019 kbps / 24 fps / High Profile 4.1
Аудио №1: Russian / AC3 / 192 kbps / 2.0ch / 48 kHz / 192 kbps
Аудио №2: English / AC3 / 192 kbps / 2.0ch / 48 kHz / 192 kbps
***Сохранены оригинальные чаптеры как на Blu-ray.
M/I
General
Unique ID : 70801500032921093856988921125267328898 (0x3543DF7682F8E1273C7BB4D3EDF04F82)
Complete name : C:UsersDoMiNoDesktopУбийцы леди_1955_BDRIP-AVC_[-=DoMiNo=-].mkv
Format : Matroska
Format version : Version 4 / Version 2
File size : 2.16 GiB
Duration : 1 h 30 min
Overall bit rate : 3 405 kb/s
Movie name : Убийцы леди
Encoded date : UTC 2018-06-13 14:24:03
Writing application : mkvmerge v24.0.0 ('Beyond The Pale') 64-bit
Writing library : libebml v1.3.6 + libmatroska v1.4.9
Attachments : poster.jpg
Video
ID : 1
Format : AVC
Format/Info : Advanced Video Codec
Format profile : High@L4.1
Format settings : CABAC / 11 Ref Frames
Format settings, CABAC : Yes
Format settings, ReFrames : 11 frames
Codec ID : V_MPEG4/ISO/AVC
Duration : 1 h 30 min
Bit rate : 3 019 kb/s
Width : 798 pixels
Height : 582 pixels
Display aspect ratio : 1.371
Frame rate mode : Constant
Frame rate : 24.000 FPS
Color space : YUV
Chroma subsampling : 4:2:0
Bit depth : 8 bits
Scan type : Progressive
Bits/(Pixel*Frame) : 0.271
Stream size : 1.91 GiB (89%)
Title : RIP_BY_-=DoMiNo=-
Writing library : x264 core 155 r2901M 7d0ff22
Encoding settings : cabac=1 / ref=11 / deblock=1:-3:-3 / analyse=0x3:0x133 / me=umh / subme=10 / psy=1 / psy_rd=1.00:0.10 / mixed_ref=1 / me_range=32 / chroma_me=1 / trellis=2 / 8x8dct=1 / cqm=0 / deadzone=21,11 / fast_pskip=0 / chroma_qp_offset=-3 / threads=6 / lookahead_threads=1 / sliced_threads=0 / nr=0 / decimate=1 / interlaced=0 / bluray_compat=0 / constrained_intra=0 / bframes=10 / b_pyramid=2 / b_adapt=2 / b_bias=0 / direct=3 / weightb=1 / open_gop=0 / weightp=2 / keyint=240 / keyint_min=24 / scenecut=40 / intra_refresh=0 / rc_lookahead=40 / rc=crf / mbtree=0 / crf=18.0 / qcomp=0.60 / qpmin=0 / qpmax=69 / qpstep=4 / vbv_maxrate=50000 / vbv_bufsize=62500 / crf_max=0.0 / nal_hrd=none / filler=0 / ip_ratio=1.40 / pb_ratio=1.30 / aq=3:1.00
Language : English
Default : Yes
Forced : No
Color range : Limited
Color primaries : BT.709
Transfer characteristics : BT.709
Matrix coefficients : BT.709
Audio #1
ID : 2
Format : AC-3
Format/Info : Audio Coding 3
Codec ID : A_AC3
Duration : 1 h 30 min
Bit rate mode : Constant
Bit rate : 192 kb/s
Channel(s) : 2 channels
Channel positions : Front: L R
Sampling rate : 48.0 kHz
Frame rate : 31.250 FPS (1536 SPF)
Bit depth : 16 bits
Compression mode : Lossy
Stream size : 125 MiB (6%)
Title : MVO_НТВ
Language : Russian
Service kind : Complete Main
Default : Yes
Forced : No
Audio #2
ID : 3
Format : AC-3
Format/Info : Audio Coding 3
Codec ID : A_AC3
Duration : 1 h 30 min
Bit rate mode : Constant
Bit rate : 192 kb/s
Channel(s) : 2 channels
Channel positions : Front: L R
Sampling rate : 48.0 kHz
Frame rate : 31.250 FPS (1536 SPF)
Bit depth : 16 bits
Compression mode : Lossy
Stream size : 125 MiB (6%)
Title : ENG
Language : English
Service kind : Complete Main
Default : No
Forced : No
Menu
00:00:00.000 : :Глава 1
00:07:59.291 : :Глава 2
00:18:13.750 : :Глава 3
00:25:26.750 : :Глава 4
00:31:46.541 : :Глава 5
00:38:19.750 : :Глава 6
00:45:58.583 : :Глава 7
00:52:50.208 : :Глава 8
01:04:28.750 : :Глава 9
01:10:35.832 : :Глава 10
01:18:23.750 : :Глава 11
01:27:28.000 : :Глава 12
01:30:41.291 : :Глава 13
Скриншоты
Автор Bot
Категория Зарубежные фильмы
InfoHash 1A4B557367562CDC1208F26C3F56D7CDD79CFEA7
Файлы (1)
Показать файлы
Трекера
Показать трекера
Похожие раздачи
Название Добавлен Размер Сид Лич
Убийцы леди / The Ladykillers (1955) BDRip-AVC | P 13/06/2018 745.3 Мб 5 0
Убийцы леди / The Ladykillers (1955) BDRip | P 13/06/2018 1.5 Гб 26 0
Убийцы леди / The Ladykillers (1955) BDRip 1080p | P 13/06/2018 7.1 Гб 1,328 50

    Нет комментариев

Войти на сайт

Статистика

  • Всего торрентов: 80439
  • Объёмом: 474.9 Тб
  • Сидов: 2160848
  • Личеров: 157660