Все раздачи Раздачи по тегам Правила Информация Контакты

Tomb Raider: Лара Крофт / Tomb Raider (2018) UHD BDRemux 2160p | HDR | D, P, L1 | Лицензия

Tomb Raider: Лара Крофт / Tomb Raider (2018) UHD BDRemux 2160p | HDR | D, P, L1 | Лицензия

Tomb Raider: Лара Крофт
Tomb Raider


Информация о фильме
Название: Tomb Raider: Лара Крофт
Оригинальное название: Tomb Raider
Год выпуска: 2018
Жанр: Боевик, приключения
Выпущено: Великобритания, США, Metro-Goldwyn-Mayer (MGM), Square Enix Inc., Warner Bros. Pictures
Режиссер: Роар Утхауг
В ролях: Алисия Викандер, Доминик Уэст, Уолтон Гоггинс, Дэниэл Ву, Кристин Скотт Томас, Дерек Джекоби, Александр Виллауме, Тамер Барджаг, Эдриан Коллинз, Кинэн Эррисон, Андриан Мазив, Милтон Шорр, Ханна Джон-Кэймен, Питер Уэйсон, Сэмюэл Мак, Скай Янг, Билли Постлтуэйт, Рекха Джон-Чериян, Антонио Аакил, Эмили Кэри, Рэй Лим
Продолжительность: 01:57:50
Описание:
Лара Крофт - весьма самостоятельная дочь эксцентричного искателя приключений, который пропал, едва она стала подростком. Теперь ей двадцать один, она бесцельно проживает свою жизнь, курьером рассекая на байке по забитым улицам восточного Лондона, а ее заработка едва хватает на оплату квартиры и занятий в колледже. Решительно настроенная пробиться сама, она отказывается брать на себя руководство глобальной империей отца, столь же категорично отвергая мысль о том, что он действительно пропал. Слыша советы о том, что ей нужно смириться с этим фактом и жить дальше после семи лет бесплодных поисков, Лара уже и сама не понимает, что же заставляет ее распутывать обстоятельства его таинственной смерти.


Файл
Контейнер: MKV
Качество: BDRemux 2160p
Видео: HEVC, 3840x2160 (16:9), 23.976 fps, 52.4 Mb/s (0.264 bit/pixel)
Аудио #1: AC-3, 48.0 kHz, 6 ch, 448 kb/s, CBR (Russian) | Дублированный |
Аудио #2: AC-3, 48.0 kHz, 6 ch, 640 kb/s, CBR (Russian) | MVO, HDrezka Studio |
Аудио #3: AC-3, 48.0 kHz, 6 ch, 640 kb/s, CBR (Russian) | AVO, BadBajo |
Аудио #4: DTS MA, 48.0 kHz, 8 ch, 4842 kb/s (Russian) | AVO, BadBajo |
Аудио #5: AC-3, 48.0 kHz, 2 ch, 192 kb/s, CBR (Ukrainian) | Дублированный |
Аудио #6: TrueHD+Atmos, 48.0 kHz, 8 ch, 3214 kb/s (English) | Original |
Аудио #7: AC-3, 48.0 kHz, 6 ch, 448 kb/s, CBR (English) | Original |
Аудио #8: DTS MA, 48.0 kHz, 6 ch, 2328 kb/s (English) | Original |
Аудио #9: AC-3, 48.0 kHz, 6 ch, 448 kb/s, CBR (English) | Audiodeion |
Субтитры: Russian (forced, full), English (full, SDH, SDH-colored)
Релиз от: Автор релиза: Ivantsov
Скриншоты





MI:

Общее
Уникальный идентификатор : 7476369098291874883488663553383366616 (0x59FE574B6DD99A94E6F203B29447FD8)
Полное имя : Tomb.Raider.2018.UHD.BDRemux.2160p.4K.UltraHD.HEVC.HDR.IVA(3xRUS.UKR.ENG).ExKinoRay.mkv
Формат : Matroska
Версия формата : Version 4 / Version 2
Размер файла : 54,1 Гбайт
Продолжительность : 1 ч. 57 м.
Режим общего битрейта : Переменный
Общий поток : 65,7 Мбит/сек
Название фильма : Tomb Raider: Лара Крофт / Tomb Raider ( 2018 ) UHD BDRemux | HDR, 4K | IVA(3xRUS.UKR.ENG) | ExKinoRay
Дата кодирования : UTC 2018-06-13 13:14:25
Программа кодирования : mkvmerge v24.0.0 ('Beyond The Pale') 64-bit
Библиотека кодирования : libebml v1.3.6 + libmatroska v1.4.9
Обложка : Yes
Attachments : cover
Видео
Идентификатор : 1
Формат : HEVC
Формат/Информация : High Efficiency Video Coding
Коммерческое название : HDR10
Профиль формата : Main 10@L5.1@High
Идентификатор кодека : V_MPEGH/ISO/HEVC
Продолжительность : 1 ч. 57 м.
Битрейт : 52,4 Мбит/сек
Ширина : 3840 пикселей
Высота : 2160 пикселей
Соотношение сторон : 16:9
Режим частоты кадров : Постоянный
Частота кадров : 23,976 (24000/1001) кадра/сек
Цветовое пространство : YUV
Субдискретизация насыщенности : 4:2:0 (Type 2)
Битовая глубина : 10 бит
Бит/(Пиксели*Кадры) : 0.264
Размер потока : 43,1 Гбайт (80%)
Язык : English
Default : Да
Forced : Нет
Цветовой диапазон : Limited
Основные цвета : BT.2020
Характеристики трансфера : PQ
Коэффициенты матрицы : BT.2020 non-constant
MasteringDisplay_Luminance : min: 0.0050 cd/m2, max: 4000 cd/m2
MaxCLL : 2971 cd/m2
MaxFALL : 112 cd/m2
Аудио #1
Идентификатор : 2
Формат : AC-3
Формат/Информация : Audio Coding 3
Идентификатор кодека : A_AC3
Продолжительность : 1 ч. 57 м.
Вид битрейта : Постоянный
Битрейт : 448 Кбит/сек
Каналы : 6 каналов
Расположение каналов : Front: L C R, Side: L R, LFE
Частота : 48,0 КГц
Частота кадров : 31,250 кадров/сек (1536 SPF)
Битовая глубина : 16 бит
Метод сжатия : С потерями
Размер потока : 378 Мбайт (1%)
Заголовок : | Дублированный |
Язык : Russian
ServiceKind : Complete Main
Default : Да
Forced : Нет
Аудио #2
Идентификатор : 3
Формат : AC-3
Формат/Информация : Audio Coding 3
Идентификатор кодека : A_AC3
Продолжительность : 1 ч. 57 м.
Вид битрейта : Постоянный
Битрейт : 640 Кбит/сек
Каналы : 6 каналов
Расположение каналов : Front: L C R, Side: L R, LFE
Частота : 48,0 КГц
Частота кадров : 31,250 кадров/сек (1536 SPF)
Битовая глубина : 16 бит
Метод сжатия : С потерями
Размер потока : 539 Мбайт (1%)
Заголовок : | MVO, HDrezka Studio |
Язык : Russian
ServiceKind : Complete Main
Default : Нет
Forced : Нет
Аудио #3
Идентификатор : 4
Формат : AC-3
Формат/Информация : Audio Coding 3
Идентификатор кодека : A_AC3
Продолжительность : 1 ч. 57 м.
Вид битрейта : Постоянный
Битрейт : 640 Кбит/сек
Каналы : 6 каналов
Расположение каналов : Front: L C R, Side: L R, LFE
Частота : 48,0 КГц
Частота кадров : 31,250 кадров/сек (1536 SPF)
Битовая глубина : 16 бит
Метод сжатия : С потерями
Размер потока : 539 Мбайт (1%)
Заголовок : | AVO, BadBajo |
Язык : Russian
ServiceKind : Complete Main
Default : Нет
Forced : Нет
Аудио #4
Идентификатор : 5
Формат : DTS
Формат/Информация : Digital Theater Systems
Профиль формата : MA / Core
Идентификатор кодека : A_DTS
Продолжительность : 1 ч. 57 м.
Вид битрейта : Переменный / Постоянный
Битрейт : 4842 Кбит/сек / 1509 Кбит/сек
Каналы : 8 каналов / 6 каналов
Расположение каналов : Front: L C R, Side: L R, Back: L R, LFE / Front: L C R, Side: L R, LFE
Частота : 48,0 КГц
Частота кадров : 93,750 кадра/сек (512 SPF)
Битовая глубина : 24 бит
Метод сжатия : Без потерь / Lossy
Размер потока : 3,99 Гбайт (7%)
Заголовок : | AVO, BadBajo |
Язык : Russian
Default : Нет
Forced : Нет
Аудио #5
Идентификатор : 6
Формат : AC-3
Формат/Информация : Audio Coding 3
Идентификатор кодека : A_AC3
Продолжительность : 1 ч. 57 м.
Вид битрейта : Постоянный
Битрейт : 192 Кбит/сек
Каналы : 2 канала
Расположение каналов : Front: L R
Частота : 48,0 КГц
Частота кадров : 31,250 кадров/сек (1536 SPF)
Битовая глубина : 16 бит
Метод сжатия : С потерями
Размер потока : 162 Мбайт (0%)
Заголовок : | Дублированный |
Язык : Ukrainian
ServiceKind : Complete Main
Default : Нет
Forced : Нет
Аудио #6
Идентификатор : 7
Формат : TrueHD
Профиль формата : TrueHD+Atmos / TrueHD
Идентификатор кодека : A_TRUEHD
Продолжительность : 1 ч. 57 м.
Вид битрейта : Переменный
Битрейт : 3214 Кбит/сек
Максимальный битрейт : 5520 Кбит/сек
Каналы : Object Based / 8 каналов
Расположение каналов : Object Based / Front: L C R, Side: L R, Back: L R, LFE
Частота : / 48,0 КГц
Частота кадров : 1200,000 кадров/сек (40 SPF)
Метод сжатия : Без потерь
Размер потока : 2,64 Гбайт (5%)
Заголовок : | Original |
Язык : English
Default : Нет
Forced : Нет
Аудио #7
Идентификатор : 8
Формат : AC-3
Формат/Информация : Audio Coding 3
Идентификатор кодека : A_AC3
Продолжительность : 1 ч. 57 м.
Вид битрейта : Постоянный
Битрейт : 448 Кбит/сек
Каналы : 6 каналов
Расположение каналов : Front: L C R, Side: L R, LFE
Частота : 48,0 КГц
Частота кадров : 31,250 кадров/сек (1536 SPF)
Битовая глубина : 16 бит
Метод сжатия : С потерями
Размер потока : 378 Мбайт (1%)
Заголовок : | Original, AC3 Core |
Язык : English
ServiceKind : Complete Main
Default : Нет
Forced : Нет
Аудио #8
Идентификатор : 9
Формат : DTS
Формат/Информация : Digital Theater Systems
Профиль формата : MA / Core
Идентификатор кодека : A_DTS
Продолжительность : 1 ч. 57 м.
Вид битрейта : Переменный / Постоянный
Битрейт : 2328 Кбит/сек / 1509 Кбит/сек
Каналы : 6 каналов
Расположение каналов : Front: L C R, Side: L R, LFE
Частота : 48,0 КГц
Частота кадров : 93,750 кадра/сек (512 SPF)
Битовая глубина : 16 бит
Метод сжатия : Без потерь / Lossy
Размер потока : 1,92 Гбайт (4%)
Заголовок : | Original, DTS-HD MA |
Язык : English
Default : Нет
Forced : Нет
Аудио #9
Идентификатор : 10
Формат : AC-3
Формат/Информация : Audio Coding 3
Идентификатор кодека : A_AC3
Продолжительность : 1 ч. 57 м.
Вид битрейта : Постоянный
Битрейт : 448 Кбит/сек
Каналы : 6 каналов
Расположение каналов : Front: L C R, Side: L R, LFE
Частота : 48,0 КГц
Частота кадров : 31,250 кадров/сек (1536 SPF)
Битовая глубина : 16 бит
Метод сжатия : С потерями
Размер потока : 378 Мбайт (1%)
Заголовок : | Audiodeion |
Язык : English
ServiceKind : Complete Main
Default : Нет
Forced : Нет
Текст #1
Идентификатор : 11
Формат : UTF-8
Идентификатор кодека : S_TEXT/UTF8
Идентификатор кодека/Информация : UTF-8 Plain Text
Продолжительность : 1 ч. 56 м.
Битрейт : 1 бит/сек
ElementCount : 36
Размер потока : 1,35 Кбайт (0%)
Заголовок : Forced
Язык : Russian
Default : Да
Forced : Да
Текст #2
Идентификатор : 12
Формат : UTF-8
Идентификатор кодека : S_TEXT/UTF8
Идентификатор кодека/Информация : UTF-8 Plain Text
Продолжительность : 1 ч. 56 м.
Битрейт : 40 бит/сек
ElementCount : 859
Размер потока : 34,9 Кбайт (0%)
Заголовок : Full
Язык : Russian
Default : Нет
Forced : Нет
Текст #3
Идентификатор : 13
Формат : UTF-8
Идентификатор кодека : S_TEXT/UTF8
Идентификатор кодека/Информация : UTF-8 Plain Text
Продолжительность : 1 ч. 50 м.
Битрейт : 29 бит/сек
ElementCount : 859
Размер потока : 24,1 Кбайт (0%)
Заголовок : Full
Язык : English
Default : Нет
Forced : Нет
Текст #4
Идентификатор : 14
Формат : UTF-8
Идентификатор кодека : S_TEXT/UTF8
Идентификатор кодека/Информация : UTF-8 Plain Text
Продолжительность : 1 ч. 50 м.
Битрейт : 35 бит/сек
ElementCount : 1121
Размер потока : 28,5 Кбайт (0%)
Заголовок : SDH
Язык : English
Default : Нет
Forced : Нет
Текст #5
Идентификатор : 15
Формат : UTF-8
Идентификатор кодека : S_TEXT/UTF8
Идентификатор кодека/Информация : UTF-8 Plain Text
Продолжительность : 1 ч. 50 м.
Битрейт : 49 бит/сек
ElementCount : 1197
Размер потока : 40,3 Кбайт (0%)
Заголовок : SDH Colored
Язык : English
Default : Нет
Forced : Нет
Меню
00:00:00.000 : en:Chapter 1
00:13:13.250 : en:Chapter 2
00:24:04.234 : en:Chapter 3
00:31:57.999 : en:Chapter 4
00:39:57.061 : en:Chapter 5
00:50:31.069 : en:Chapter 6
01:04:49.844 : en:Chapter 7
01:13:58.100 : en:Chapter 8
01:20:17.395 : en:Chapter 9
01:27:41.130 : en:Chapter 10
01:38:41.624 : en:Chapter 11
01:51:17.420 : en:Chapter 12
Автор Bot
Категория Зарубежные фильмы
InfoHash 02E09336BB86BEB9979B4CEBDE79E6BAFD2A713A
Файлы (1)
Показать файлы
Трекера
Показать трекера
Похожие раздачи

    Нет комментариев

Войти на сайт

Статистика

  • Всего торрентов: 80505
  • Объёмом: 475.2 Тб
  • Сидов: 2134953
  • Личеров: 158748