Все раздачи Раздачи по тегам Правила Информация Контакты

Незнакомцы: Жестокие игры / The Strangers: Prey at Night (2018) BDRip 720p | iTunes

Незнакомцы: Жестокие игры / The Strangers: Prey at Night (2018) BDRip 720p | iTunes

Информация о фильме
Название: Незнакомцы: Жестокие игры
Оригинальное название: The Strangers: Prey at Night
Год выхода: 2018
Жанр: Ужасы
Режиссер: Йоханнес Робертс
В ролях: Кристина Хендрикс, Бэйли Мэдисон, Эмма Белломи, Мартин Хендерсон, Льюис Пуллман, Дэмиэн Маффей, Лиа Энзлин, Леа Робертс, Престон Садлеир
О фильме: Американская семья отправляется в небольшое путешествие — навестить родственников, которые живут в кемпинге. Но автомобильный лагерь оказывается пуст. Под покровом ночи появляются трое психопатов в масках, цель которых не грабить или убивать, а выяснить, какой у каждого из членов семьи личный предел жажды жизни…​

Выпущено: США / Bloom
Продолжительность: 01:25:37
Озвучивание: Дублированное [iTunes]
Файл
Формат: MKV
Качество: BDRip 720p
Видео: MPEG-4 AVC, 4999 kb/s, 1280x536
Аудио: Russian: AC3, 384 kb/s (6 ch) / English: AC3, 640 kb/s (6 ch)
Субтитры: Английские
MI

Общее
Уникальный идентификатор : 242261506144833575771678830410670133252 (0xB641DE709A1683EAA41CA1F97F45D004)
Полное имя : F:ЗагрузкиThe.Strangers.Prey.at.Night.2018.D.BDRip.720p.mkv
Формат : Matroska
Версия формата : Version 2
Размер файла : 3,60 Гбайт
Продолжительность : 1 ч. 25 м.
Общий поток : 6022 Кбит/сек
Дата кодирования : UTC 2018-06-13 16:15:18
Программа кодирования : mkvmerge v7.8.0 ('River Man') 32bit built on Apr 3 2015 12:11:22
Библиотека кодирования : libebml v1.3.1 + libmatroska v1.4.2
Видео
Идентификатор : 1
Формат : AVC
Формат/Информация : Advanced Video Codec
Профиль формата : High@L4.1
Настройки формата : CABAC / 12 Ref Frames
Параметр CABAC формата : Да
Параметр RefFrames формата : 12 кадров
Идентификатор кодека : V_MPEG4/ISO/AVC
Продолжительность : 1 ч. 25 м.
Битрейт : 4999 Кбит/сек
Ширина : 1280 пикселей
Высота : 536 пикселей
Соотношение сторон : 2,40:1
Режим частоты кадров : Постоянный
Частота кадров : 23,976 (24000/1001) кадра/сек
Цветовое пространство : YUV
Субдискретизация насыщенности : 4:2:0
Битовая глубина : 8 бит
Тип развёртки : Прогрессивная
Бит/(Пиксели*Кадры) : 0.304
Размер потока : 2,92 Гбайт (81%)
Библиотека кодирования : x264 core 152 r2851kMod ba24899
Настройки программы : cabac=1 / ref=12 / deblock=1:-2:-2 / analyse=0x3:0x133 / me=umh / subme=11 / psy=1 / fade_compensate=0.00 / psy_rd=1.00:0.00 / mixed_ref=1 / me_range=32 / chroma_me=0 / trellis=2 / 8x8dct=1 / cqm=0 / deadzone=21,11 / fast_pskip=0 / chroma_qp_offset=-2 / threads=12 / lookahead_threads=2 / sliced_threads=0 / nr=0 / decimate=0 / interlaced=0 / bluray_compat=0 / constrained_intra=0 / bframes=9 / b_pyramid=2 / b_adapt=2 / b_bias=0 / direct=3 / weightb=1 / open_gop=1 / weightp=2 / keyint=240 / keyint_min=24 / scenecut=40 / intra_refresh=0 / rc_lookahead=40 / rc=2pass / mbtree=0 / bitrate=4999 / ratetol=1.0 / qcomp=0.60 / qpmin=0 / qpmax=69 / qpstep=4 / cplxblur=20.0 / qblur=0.5 / vbv_maxrate=50000 / vbv_bufsize=62500 / nal_hrd=none / filler=0 / ip_ratio=1.30 / pb_ratio=1.20 / aq=3:0.80
Язык : English
Default : Да
Forced : Нет
Аудио #1
Идентификатор : 2
Формат : AC-3
Формат/Информация : Audio Coding 3
Идентификатор кодека : A_AC3
Продолжительность : 1 ч. 25 м.
Вид битрейта : Постоянный
Битрейт : 384 Кбит/сек
Каналы : 6 каналов
Расположение каналов : Front: L C R, Side: L R, LFE
Частота : 48,0 КГц
Частота кадров : 31,250 кадров/сек (1536 SPF)
Битовая глубина : 16 бит
Метод сжатия : С потерями
Размер потока : 235 Мбайт (6%)
Заголовок : iTunes
Язык : Russian
Default : Да
Forced : Нет
Аудио #2
Идентификатор : 3
Формат : AC-3
Формат/Информация : Audio Coding 3
Идентификатор кодека : A_AC3
Продолжительность : 1 ч. 25 м.
Вид битрейта : Постоянный
Битрейт : 640 Кбит/сек
Каналы : 6 каналов
Расположение каналов : Front: L C R, Side: L R, LFE
Частота : 48,0 КГц
Частота кадров : 31,250 кадров/сек (1536 SPF)
Битовая глубина : 16 бит
Метод сжатия : С потерями
Размер потока : 392 Мбайт (11%)
Заголовок : Original
Язык : English
Default : Нет
Forced : Нет
Текст
Идентификатор : 4
Формат : UTF-8
Идентификатор кодека : S_TEXT/UTF8
Идентификатор кодека/Информация : UTF-8 Plain Text
Заголовок : Full
Язык : English
Default : Нет
Forced : Нет
Меню
00:00:00.000 : en:Chapter 01
00:04:59.882 : en:Chapter 02
00:08:49.153 : en:Chapter 03
00:12:58.110 : en:Chapter 04
00:17:23.917 : en:Chapter 05
00:21:53.770 : en:Chapter 06
00:24:53.909 : en:Chapter 07
00:30:15.104 : en:Chapter 08
00:34:45.208 : en:Chapter 09
00:40:01.899 : en:Chapter 10
00:44:48.727 : en:Chapter 11
00:49:48.443 : en:Chapter 12
00:53:12.606 : en:Chapter 13
00:56:55.995 : en:Chapter 14
00:58:20.705 : en:Chapter 15
01:00:37.884 : en:Chapter 16
01:05:21.709 : en:Chapter 17
01:09:17.528 : en:Chapter 18
01:14:59.036 : en:Chapter 19
01:18:07.349 : en:Chapter 20



Автор Bot
Категория Зарубежные фильмы
InfoHash 5430AC710EA780BE637DF2496542CA9ED4197B39
Файлы (1)
Показать файлы
Трекера
Показать трекера
Похожие раздачи

    Нет комментариев

Войти на сайт

Статистика

  • Всего торрентов: 93290
  • Объёмом: 558.1 Тб
  • Сидов: 3053590
  • Личеров: 178433