Все раздачи Раздачи по тегам Правила Информация Контакты

Ярость / The Fury (1978) BDRip 720p

Ярость / The Fury (1978) BDRip 720p

Год выпуска: 1978
Страна: США
Жанр: ужасы, фантастика, триллер, драма
Продолжительность: 01:57:57
Перевод: Профессиональный многоголосый, профессиональный двухголосый, авторский
Режиссёр: Брайан Де Пальма
В ролях: Кирк Дуглас, Джон Кассаветис, Кэрри Снодгресс, Чарльз Дёрнинг, Эми Ирвинг, Фиона Льюис, Эндрю Стивенс, Кэрол Ив Россен, Рутанья Алда, Джойс Истон
Описание: Секретное американское агентство проводит эксперименты с детьми, обладающими повышенными телепатическими способностями, чтобы впоследствии использовать их в военных целях. Бывший агент ЦРУ Питер Сандза, спокойно отдыхающий со своим сыном Робином на Ближнем Востоке, переживает шок, когда мальчика неожиданно похищают. Чтобы выйти на его след, Питер обращается за помощью к девушке-экстрасенсу Джиллиан Беллевер. То, что им удается узнать, поначалу никак не укладывается у Питера в голове... Фильм по роману Джона Фэрриса.

Качество: BDRip 720p Сравнение с исходником
Формат: MKV
Видео: MPEG-4 AVC, 5763 Кбит/с, 1280x694, 23,976 кадра/с
Аудио 1: русский, AC3, 448 kbps, 4 ch, 48 kHz [профессиональный многоголосый, DVD, R5]
Аудио 2: русский, AC3, 192 kbps, 2 ch, 48 kHz [профессиональный двухголосый, HTB+]
Аудио 3: русский, AC3, 192 kbps, 2 ch, 48 kHz [авторский, Леонид Володарский]
Аудио 4: русский, AC3, 192 kbps, 2 ch, 48 kHz [авторский, Андрей Гаврилов]
Аудио 5: русский, AC3, 448 kbps, 4 ch, 48 kHz [авторский, Алексей Михалёв]
Аудио 6: английский, AC3, 384 kbps, 5 ch, 48 kHz [оригинал]
Субтитры 1: русские
Субтитры 2: английские (для слабослышащих)
Инфо-файл
frame I:1053 Avg QP:22.75 size:103067
frame P:29875 Avg QP:23.91 size: 55509
frame B:138673 Avg QP:26.14 size: 24995
Общее
Уникальный идентификатор : 239501131951034694883772529230740400161 (0xB42E3D7C09A063179E65DA83E68F2821)
Полное имя : D:VideoЯрость.1978.BDRip.720p.mkv
Формат : Matroska
Версия формата : Version 4 / Version 2
Размер файла : 6,40 Гбайт
Продолжительность : 1 ч. 57 м.
Общий поток : 7774 Кбит/сек
Название фильма : BDRip -- С.Таранков
Дата кодирования : UTC 2015-04-18 08:24:47
Программа кодирования : mkvmerge v7.8.0 ('River Man') 64bit built on Mar 27 2015 16:31:37
Библиотека кодирования : libebml v1.3.1 + libmatroska v1.4.2
DURATION : 01:52:46.175000000
NUMBER_OF_FRAMES : 1518
NUMBER_OF_BYTES : 48701
_STATISTICS_WRITING_APP : mkvmerge v7.8.0 ('River Man') 64bit built on Mar 27 2015 16:31:37
_STATISTICS_WRITING_DATE_UTC : 2015-04-18 08:24:47
_STATISTICS_TAGS : BPS DURATION NUMBER_OF_FRAMES NUMBER_OF_BYTES
Видео
Идентификатор : 1
Формат : AVC
Формат/Информация : Advanced Video Codec
Профиль формата : High@L4.1
Параметр CABAC формата : Да
Параметр ReFrames формата : 9 кадров
Идентификатор кодека : V_MPEG4/ISO/AVC
Продолжительность : 1 ч. 57 м.
Битрейт : 5763 Кбит/сек
Ширина : 1280 пикселей
Высота : 694 пикселя
Соотношение сторон : 1,85:1
Режим частоты кадров : Постоянный
Частота кадров : 23,976 кадра/сек
Цветовое пространство : YUV
Субдискретизация насыщенности : 4:2:0
Битовая глубина : 8 бит
Тип развёртки : Прогрессивная
Бит/(Пиксели*Кадры) : 0.271
Размер потока : 4,75 Гбайт (74%)
Библиотека кодирования : x264 core 146 r2538 121396c
Настройки программы : cabac=1 / ref=9 / deblock=1:-1:-1 / analyse=0x3:0x113 / me=umh / subme=10 / psy=1 / psy_rd=1.00:0.15 / mixed_ref=1 / me_range=32 / chroma_me=1 / trellis=2 / 8x8dct=1 / cqm=0 / deadzone=21,11 / fast_pskip=1 / chroma_qp_offset=-3 / threads=6 / lookahead_threads=1 / sliced_threads=0 / nr=0 / decimate=1 / interlaced=0 / bluray_compat=0 / constrained_intra=0 / bframes=10 / b_pyramid=2 / b_adapt=2 / b_bias=0 / direct=1 / weightb=1 / open_gop=0 / weightp=2 / keyint=230 / keyint_min=23 / scenecut=40 / intra_refresh=0 / rc_lookahead=40 / rc=crf / mbtree=0 / crf=22.0 / qcomp=0.60 / qpmin=0 / qpmax=69 / qpstep=4 / vbv_maxrate=40000 / vbv_bufsize=50000 / crf_max=0.0 / nal_hrd=none / filler=0 / ip_ratio=1.40 / pb_ratio=1.30 / aq=1:1.00
Язык : English
Default : Да
Forced : Нет
DURATION : 01:57:53.775000000
NUMBER_OF_FRAMES : 169601
NUMBER_OF_BYTES : 5233046876
_STATISTICS_WRITING_APP : mkvmerge v7.8.0 ('River Man') 64bit built on Mar 27 2015 16:31:37
_STATISTICS_WRITING_DATE_UTC : 2015-04-18 08:24:47
_STATISTICS_TAGS : BPS DURATION NUMBER_OF_FRAMES NUMBER_OF_BYTES
Аудио #1
Идентификатор : 2
Формат : AC-3
Формат/Информация : Audio Coding 3
Расширение режима : CM (complete main)
Параметр Endianness формата : Big
Идентификатор кодека : A_AC3
Продолжительность : 1 ч. 57 м.
Вид битрейта : Постоянный
Битрейт : 448 Кбит/сек
Каналы : 4 канала
Расположение каналов : Front: L C R, Back: C
Частота : 48,0 КГц
Битовая глубина : 16 бит
Метод сжатия : С потерями
Размер потока : 378 Мбайт (6%)
Заголовок : MVO (DVD, R5)
Язык : Russian
Default : Да
Forced : Нет
Аудио #2
Идентификатор : 3
Формат : AC-3
Формат/Информация : Audio Coding 3
Расширение режима : CM (complete main)
Параметр Endianness формата : Big
Идентификатор кодека : A_AC3
Продолжительность : 1 ч. 57 м.
Вид битрейта : Постоянный
Битрейт : 192 Кбит/сек
Каналы : 2 канала
Расположение каналов : Front: L R
Частота : 48,0 КГц
Битовая глубина : 16 бит
Метод сжатия : С потерями
Размер потока : 162 Мбайт (2%)
Заголовок : DVO (HTB+)
Язык : Russian
Default : Нет
Forced : Нет
Аудио #3
Идентификатор : 4
Формат : AC-3
Формат/Информация : Audio Coding 3
Расширение режима : CM (complete main)
Параметр Endianness формата : Big
Идентификатор кодека : A_AC3
Продолжительность : 1 ч. 57 м.
Вид битрейта : Постоянный
Битрейт : 192 Кбит/сек
Каналы : 2 канала
Расположение каналов : Front: L R
Частота : 48,0 КГц
Битовая глубина : 16 бит
Метод сжатия : С потерями
Размер потока : 162 Мбайт (2%)
Заголовок : AVO (Леонид Володарский)
Язык : Russian
Default : Нет
Forced : Нет
Аудио #4
Идентификатор : 5
Формат : AC-3
Формат/Информация : Audio Coding 3
Расширение режима : CM (complete main)
Параметр Endianness формата : Big
Идентификатор кодека : A_AC3
Продолжительность : 1 ч. 57 м.
Вид битрейта : Постоянный
Битрейт : 192 Кбит/сек
Каналы : 2 канала
Расположение каналов : Front: L R
Частота : 48,0 КГц
Битовая глубина : 16 бит
Метод сжатия : С потерями
Размер потока : 162 Мбайт (2%)
Заголовок : AVO (Андрей Гаврилов)
Язык : Russian
Default : Нет
Forced : Нет
Аудио #5
Идентификатор : 6
Формат : AC-3
Формат/Информация : Audio Coding 3
Расширение режима : CM (complete main)
Параметр Endianness формата : Big
Идентификатор кодека : A_AC3
Продолжительность : 1 ч. 57 м.
Вид битрейта : Постоянный
Битрейт : 448 Кбит/сек
Каналы : 4 канала
Расположение каналов : Front: L C R, Back: C
Частота : 48,0 КГц
Битовая глубина : 16 бит
Метод сжатия : С потерями
Размер потока : 378 Мбайт (6%)
Заголовок : AVO (Алексей Михалёв)
Язык : Russian
Default : Нет
Forced : Нет
Аудио #6
Идентификатор : 7
Формат : AC-3
Формат/Информация : Audio Coding 3
Расширение режима : CM (complete main)
Параметр Endianness формата : Big
Идентификатор кодека : A_AC3
Продолжительность : 1 ч. 57 м.
Вид битрейта : Постоянный
Битрейт : 384 Кбит/сек
Каналы : 5 каналов
Расположение каналов : Front: L C R, Back: C, LFE
Частота : 48,0 КГц
Битовая глубина : 16 бит
Метод сжатия : С потерями
Размер потока : 324 Мбайт (5%)
Заголовок : Original
Язык : English
Default : Нет
Forced : Нет
Текст #1
Идентификатор : 8
Формат : UTF-8
Идентификатор кодека : S_TEXT/UTF8
Идентификатор кодека/Информация : UTF-8 Plain Text
Заголовок : русские
Язык : Russian
Default : Нет
Forced : Нет
Текст #2
Идентификатор : 9
Формат : UTF-8
Идентификатор кодека : S_TEXT/UTF8
Идентификатор кодека/Информация : UTF-8 Plain Text
Заголовок : английские (для слабослышащих)
Default : Нет
Forced : Нет

Скриншоты

Автор Bot
Категория Зарубежные фильмы
InfoHash D038E314AEE0ED0B21D61923C1F95BF83E771DBE
Файлы (1)
Показать файлы
Трекера
Показать трекера
Похожие раздачи

    Нет комментариев

Войти на сайт

Статистика

  • Всего торрентов: 93105
  • Объёмом: 556.7 Тб
  • Сидов: 2987268
  • Личеров: 176396