Все раздачи Раздачи по тегам Правила Информация Контакты

Убийцы / Tueurs (2017) HDRip-AVC | L

Убийцы / Tueurs (2017) HDRip-AVC | L

Информация о фильме
Название: Убийцы
Оригинальное название: Tueurs
Год выхода: 2017
Жанр: Триллер
Режиссер: Жан-Франсуа Хенсгенс, Франсуа Трукинс
В ролях: Йохан Лейзен, Наташа Ренье, Александр Пико, Оливье Гурме, Кевин Дженссенс, Лубна Азабаль, Жан-Луи Сбий, Були Ланнерс, Тибо Ванденборре, Анн Косенс
О фильме :
Громкое судебное заседание по делу "Безумного снайпера" оборачивается трагическими событиями. Несколько вооруженных преступников в масках решают ликвидировать всех свидетелей по этому делу. Среди жертв оказывается и судья. Обвинение в нападении предъявляют Фрэнку Валкену. Но он не причастен к этому преступлению. Поэтому у Фрэнка не остается другого выхода, кроме как сбежать. У него созрел необычный план как доказать свою невиновность и наказать реальных убийц...

Страна: Франция, Бельгия
Студия: La Direction de L'Audiovisual de Communaute Francaise de Belgique, Savage Film
Продолжительность: 01:26:15
Перевод: Любительский (многоголосый, закадровый) - @MUZOBOZ@
Файл
Формат: MKV
Качество: HDRip-AVC
Видео: MPEG-4 AVC, 784x328, ~ 1131 Кбит/с
Аудио: AAC-HE, 2 ch, ~ 76 Кбит/с
Субтитры: Английские

MI
Общее
Уникальный идентификатор : 198578416169390322676931842219958404558 (0x9564CFD2301657B186BDA0AC52A505CE)
Полное имя : D:MOVIESTueurs.2017.ExKinoRay.mkv
Формат : Matroska
Версия формата : Version 4 / Version 2
Размер файла : 745 Мбайт
Продолжительность : 1 ч. 26 м.
Общий поток : 1208 Кбит/сек
Дата кодирования : UTC 2018-06-13 15:48:50
Программа кодирования : mkvmerge v15.0.0 ('Duel with the Devil') 64-bit
Библиотека кодирования : libebml v1.3.5 + libmatroska v1.4.5
Видео
Идентификатор : 1
Формат : AVC
Формат/Информация : Advanced Video Codec
Профиль формата : High@L4.1
Параметр CABAC формата : Да
Параметр RefFrames формата : 10 кадров
Идентификатор кодека : V_MPEG4/ISO/AVC
Продолжительность : 1 ч. 26 м.
Битрейт : 1131 Кбит/сек
Ширина : 784 пикселя
Высота : 328 пикселей
Соотношение сторон : 2,40:1
Режим частоты кадров : Постоянный
Частота кадров : 24,000 кадра/сек
Цветовое пространство : YUV
Субдискретизация насыщенности : 4:2:0
Битовая глубина : 8 бит
Тип развёртки : Прогрессивная
Бит/(Пиксели*Кадры) : 0.183
Размер потока : 697 Мбайт (94%)
Библиотека кодирования : x264 core 152 r2851kMod ba24899
Настройки программы : cabac=1 / ref=10 / deblock=1:-3:-2 / analyse=0x3:0x133 / me=umh / subme=11 / psy=1 / fade_compensate=0.00 / psy_rd=1.00:0.14 / mixed_ref=1 / me_range=32 / chroma_me=1 / trellis=2 / 8x8dct=1 / cqm=0 / deadzone=21,11 / fast_pskip=0 / chroma_qp_offset=-3 / threads=6 / lookahead_threads=1 / sliced_threads=0 / nr=0 / decimate=0 / interlaced=0 / bluray_compat=0 / constrained_intra=0 / bframes=10 / b_pyramid=2 / b_adapt=2 / b_bias=0 / direct=3 / weightb=1 / open_gop=0 / weightp=2 / keyint=240 / keyint_min=23 / scenecut=40 / intra_refresh=0 / rc_lookahead=40 / rc=2pass / mbtree=1 / bitrate=1131 / ratetol=1.0 / qcomp=0.60 / qpmin=0 / qpmax=69 / qpstep=4 / cplxblur=20.0 / qblur=0.5 / vbv_maxrate=50000 / vbv_bufsize=62500 / nal_hrd=none / filler=0 / ip_ratio=1.40 / aq=3:1.00
Default : Да
Forced : Нет
Аудио
Идентификатор : 2
Формат : AAC
Формат/Информация : Advanced Audio Codec
Профиль формата : HE-AAC / LC
Идентификатор кодека : A_AAC
Продолжительность : 1 ч. 26 м.
Битрейт : 76,0 Кбит/сек
Каналы : 2 канала
Расположение каналов : Front: L R
Частота : 48,0 КГц / 24,0 КГц
Частота кадров : 23,438 кадра/сек (1024 SPF)
Метод сжатия : С потерями
Задержка видео : 31 мс.
Размер потока : 46,9 Мбайт (6%)
Язык : Russian
Default : Да
Forced : Нет
Текст
Идентификатор : 3
Формат : UTF-8
Идентификатор кодека : S_TEXT/UTF8
Идентификатор кодека/Информация : UTF-8 Plain Text
Продолжительность : 1 ч. 21 м.
Битрейт : 29 бит/сек
ElementCount : 637
Размер потока : 17,4 Кбайт (0%)
Язык : English
Default : Нет
Forced : Нет
Меню
00:00:00.000 : en:(01)00:00:00:000
00:06:11.833 : en:(02)00:06:11:833
00:12:55.833 : en:(03)00:12:55:833
00:21:48.416 : en:(04)00:21:48:416
00:30:14.750 : en:(05)00:30:14:750
00:38:50.708 : en:(06)00:38:50:708
00:49:08.125 : en:(07)00:49:08:125
00:59:42.791 : en:(08)00:59:42:791
01:14:54.041 : en:(09)01:14:54:041
01:22:06.916 : en:(10)01:22:06:916
Скриншоты


Релиз от:
Автор Bot
Категория Зарубежные фильмы
InfoHash D7877DC7FE782D8182C388EE6BDE8A30B339787E
Файлы (1)
Показать файлы
Трекера
Показать трекера
Похожие раздачи
Название Добавлен Размер Сид Лич
Убийцы / Tueurs (2017) HDRip-AVC | L 16/06/2018 1.4 Гб 407 4
Убийцы / Tueurs (2017) BDRip | L 15/06/2018 1.5 Гб 1,724 146
Убийцы / Tueurs (2017) BDRip 1080p | L 15/06/2018 7.2 Гб 1,602 135

    Нет комментариев

Войти на сайт

Статистика

  • Всего торрентов: 80590
  • Объёмом: 475.7 Тб
  • Сидов: 2126685
  • Личеров: 166427