Все раздачи Раздачи по тегам Правила Информация Контакты

Клад / Holes (2003) BDRip 1080p | D, P2

Клад / Holes (2003) BDRip 1080p | D, P2

Информация о фильме
Название: Клад
Оригинальное название: Holes
Год выхода: 2003
Жанр: Комедия, драма, приключения, семейный
Режиссер: Эндрю Дэвис
В ролях: Сигурни Уивер, Джон Войт, Тим Блэйк Нельсон, Шайа ЛаБаф, Хлео Томас, Джэйк М. Смит, Байрон Коттон, Бренден Джеффресон, Мигель Кастро, Макс Кэш, Рома Маффиа, Генри Уинклер
О фильме:
На семье подростка по имени Стенли Илнетс лежит древнее проклятие. Все его предки по мужской линии были обречены попадать в самые невероятные жизненные переделки. Вот и Стенли получает срок в исправительном трудовом лагере «Зелёное озеро» за преступление, которое он не совершал. Администрация лагеря в лице хищной начальницы и жестокого старшего надзирателя заставляет своих подопечных ежедневно копать в пустыне странные ямы, называя это «трудовой терапией». Никто из этих ребят не знает, зачем на самом деле они роют все эти ямы…

Страна: США
Студия: Walt Disney Pictures
Продолжительность: 01:57:21
Перевод: Дублированный, профессиональный двухголосый
Файл
Кодек: x.264
Качество: BDRip 1080p
Видео: MPEG-4 AVC, 1920x1040, 13.2 Mбит/с, 23.976 кадр/с
Звук:
Аудио #1: Русский ( АС3, 6ch, 448Кбит/с, 48.0 KHz) Профессиональный (полное дублирование) Невафильм
Аудио #2: Русский ( АС3, 6ch, 448Кбит/с, 48.0 KHz) Профессиональный (двухголосый, закадровый)
Аудио #3: Английский ( АС3, 6ch, 448Кбит/с, 48.0 KHz)
Субтитры: pусские, английские
Трейлер
MediaInfo
Источник: Holes.2003.1080p.BluRay.X264-AMIABLE
General
Unique ID : 224646729355850061538267747114347667716 (0xA90162E464BE4730AEDC430B569C2104)
Complete name : Holes.2003.BDRip.1080p.mkv
Format : Matroska
Format version : Version 4 / Version 2
File size : 11.9 GiB
Duration : 1 h 57 min
Overall bit rate : 14.5 Mb/s
Encoded date : UTC 2018-06-13 15:38:55
Writing application : mkvmerge v7.1.0 ('Good Love') 64bit built on Jul 27 2014 13:06:55
Writing library : libebml v1.3.0 + libmatroska v1.4.1
Video
ID : 1
Format : AVC
Format/Info : Advanced Video Codec
Format profile : High@L4.1
Format settings : CABAC / 4 Ref Frames
Format settings, CABAC : Yes
Format settings, ReFrames : 4 frames
Codec ID : V_MPEG4/ISO/AVC
Duration : 1 h 57 min
Bit rate : 13.2 Mb/s
Width : 1 920 pixels
Height : 1 040 pixels
Display aspect ratio : 1.85:1
Frame rate mode : Constant
Frame rate : 23.976 (24000/1001) FPS
Color space : YUV
Chroma subsampling : 4:2:0
Bit depth : 8 bits
Scan type : Progressive
Bits/(Pixel*Frame) : 0.275
Stream size : 10.8 GiB (91%)
Writing library : x264 core 155 r2901 7d0ff22
Encoding settings : cabac=1 / ref=4 / deblock=1:-3:-3 / analyse=0x3:0x113 / me=umh / subme=8 / psy=1 / psy_rd=1.10:0.00 / mixed_ref=1 / me_range=32 / chroma_me=1 / trellis=2 / 8x8dct=1 / cqm=0 / deadzone=21,11 / fast_pskip=1 / chroma_qp_offset=-2 / threads=24 / lookahead_threads=4 / sliced_threads=0 / nr=0 / decimate=1 / interlaced=0 / bluray_compat=0 / constrained_intra=0 / bframes=3 / b_pyramid=2 / b_adapt=2 / b_bias=0 / direct=3 / weightb=1 / open_gop=0 / weightp=2 / keyint=240 / keyint_min=24 / scenecut=40 / intra_refresh=0 / rc_lookahead=50 / rc=2pass / mbtree=1 / bitrate=13160 / ratetol=1.0 / qcomp=0.60 / qpmin=0 / qpmax=69 / qpstep=4 / cplxblur=20.0 / qblur=0.5 / ip_ratio=1.40 / aq=3:0.75
Language : English
Default : Yes
Forced : No
Audio #1
ID : 2
Format : AC-3
Format/Info : Audio Coding 3
Codec ID : A_AC3
Duration : 1 h 57 min
Bit rate mode : Constant
Bit rate : 448 kb/s
Channel(s) : 6 channels
Channel positions : Front: L C R, Side: L R, LFE
Sampling rate : 48.0 kHz
Frame rate : 31.250 FPS (1536 SPF)
Bit depth : 16 bits
Compression mode : Lossy
Stream size : 376 MiB (3%)
Title : DUB
Language : Russian
Service kind : Complete Main
Default : Yes
Forced : No
Audio #2
ID : 3
Format : AC-3
Format/Info : Audio Coding 3
Codec ID : A_AC3
Duration : 1 h 57 min
Bit rate mode : Constant
Bit rate : 448 kb/s
Channel(s) : 6 channels
Channel positions : Front: L C R, Side: L R, LFE
Sampling rate : 48.0 kHz
Frame rate : 31.250 FPS (1536 SPF)
Bit depth : 16 bits
Compression mode : Lossy
Stream size : 376 MiB (3%)
Title : DVO
Language : Russian
Service kind : Complete Main
Default : No
Forced : No
Audio #3
ID : 4
Format : AC-3
Format/Info : Audio Coding 3
Codec ID : A_AC3
Duration : 1 h 57 min
Bit rate mode : Constant
Bit rate : 448 kb/s
Channel(s) : 6 channels
Channel positions : Front: L C R, Side: L R, LFE
Sampling rate : 48.0 kHz
Frame rate : 31.250 FPS (1536 SPF)
Bit depth : 16 bits
Compression mode : Lossy
Stream size : 376 MiB (3%)
Language : English
Service kind : Complete Main
Default : No
Forced : No
Text #1
ID : 5
Format : UTF-8
Codec ID : S_TEXT/UTF8
Codec ID/Info : UTF-8 Plain Text
Duration : 1 h 56 min
Bit rate : 84 b/s
Count of elements : 1378
Stream size : 72.2 KiB (0%)
Language : Russian
Default : No
Forced : No
Text #2
ID : 6
Format : UTF-8
Codec ID : S_TEXT/UTF8
Codec ID/Info : UTF-8 Plain Text
Duration : 1 h 56 min
Bit rate : 77 b/s
Count of elements : 2204
Stream size : 66.6 KiB (0%)
Language : English
Default : No
Forced : No
Text #3
ID : 7
Format : UTF-8
Codec ID : S_TEXT/UTF8
Codec ID/Info : UTF-8 Plain Text
Duration : 1 h 56 min
Bit rate : 85 b/s
Count of elements : 2435
Stream size : 73.1 KiB (0%)
Title : SDH
Language : English
Default : No
Forced : No
Menu
00:00:00.000 : en:00:00:00.000
00:05:12.646 : en:00:05:12.646
00:10:05.980 : en:00:10:05.980
00:14:07.847 : en:00:14:07.847
00:16:04.005 : en:00:16:04.005
00:18:40.244 : en:00:18:40.244
00:24:13.160 : en:00:24:13.160
00:26:31.340 : en:00:26:31.340
00:28:06.018 : en:00:28:06.018
00:31:04.529 : en:00:31:04.529
00:37:26.911 : en:00:37:26.911
00:43:51.754 : en:00:43:51.754
00:52:38.739 : en:00:52:38.739
00:53:55.566 : en:00:53:55.566
00:56:38.186 : en:00:56:38.186
00:59:24.478 : en:00:59:24.478
01:10:46.325 : en:01:10:46.325
01:14:08.361 : en:01:14:08.361
01:21:19.166 : en:01:21:19.166
01:28:00.025 : en:01:28:00.025
01:29:08.218 : en:01:29:08.218
01:33:44.577 : en:01:33:44.577
01:36:20.775 : en:01:36:20.775
01:47:45.084 : en:01:47:45.084

Скриншоты
Автор Bot
Категория Зарубежные фильмы
InfoHash 30D7C322551323A9291617890BE9316ABE33A08E
Файлы (1)
Показать файлы
Трекера
Показать трекера

    Нет комментариев

Войти на сайт

Статистика

  • Всего торрентов: 80439
  • Объёмом: 474.9 Тб
  • Сидов: 2161172
  • Личеров: 157515