Все раздачи Раздачи по тегам Правила Информация Контакты

Суперфлай / Super Fly (1972) WEB-DL 1080p | P

Суперфлай / Super Fly (1972) WEB-DL 1080p | P

Название: Суперфлай
Оригинальное название: Super Fly
Год выпуска: 1972
Выпущено: США, Sig Shore Productions, Superfly Ltd., Warner Bros. Pictures
Жанр: Боевик, драма, криминал
Режиссер: Гордон Паркс мл.
В ролях: Рон О`Нил, Карл Ли, Шила Фрэзиер, Джулиус Харрис, Чарльз МакГрегор, Нат Адамс, Полли Нилс, Ивонн Делэйн, Генри Шапиро, К.С., Джеймс Дж. Ричардсон, Мейк Брэй, Боб Бондс...
О фильме: Герой фильма, наркодилер по прозвищу Суперфлай, полон презрения к окружающим, он пытается "утирать носы" всем и каждому: черным и белым, мужчинам и женщинам, бедным и богатым, консерваторам и либералам. Он считает себя центром мироздания, он - торговец кокаином. У него роскошная машина, шикарный гардероб, автоматический пистолет, две любовницы, куча денег... Устав от жизни в постоянном риске, Суперфлай, перед тем, как оставить навсегда свое ремесло, собирается провернуть последнюю крупную операцию (самую большую аферу в своей жизни).
Продолжительность: 01:31:26
Перевод: Профессиональный многоголосый
Субтитры: Английские
Навигация по главам: Есть
Файл
Качество: WEB-DL 1080p
Видео: MPEG-4 AVC, 12,5 Мбит/сек, 1920x1080, 23,976 кадра/сек
Аудио #1: AC3, 2 ch, 192 Кбит/сек | Русский, профессиональный (многоголосый закадровый)
Аудио #2: EAC3, 2 ch, 224 Кбит/сек | Английский, оригинал
Аудио #3: AC3, 2 ch, 192 Кбит/сек | Французский, профессиональный (полное дублирование)

Скриншоты

Инфо-файл
Общее
Уникальный идентификатор : 216604935479480196863249544870692792158 (0xA2F497D7A495776DAA59A60851C6275E)
Полное имя : Суперфлай.1972.WEB-DL.1080p.mkv
Формат : Matroska
Версия формата : Version 2
Размер файла : 8,55 Гбайт
Продолжительность : 1 ч. 31 м.
Режим общего битрейта : Переменный
Общий поток : 13,4 Мбит/сек
Дата кодирования : UTC 2018-06-12 18:18:11
Программа кодирования : mkvmerge v5.8.0 ('No Sleep / Pillow') built on Sep 2 2012 15:37:04
Библиотека кодирования : libebml v1.2.3 + libmatroska v1.3.0
Видео
Идентификатор : 1
Формат : AVC
Формат/Информация : Advanced Video Codec
Профиль формата : High@L4
Настройки формата : CABAC / 4 Ref Frames
Параметр CABAC формата : Да
Параметр RefFrames формата : 4 кадра
Идентификатор кодека : V_MPEG4/ISO/AVC
Продолжительность : 1 ч. 31 м.
Вид битрейта : Переменный
Битрейт : 12,5 Мбит/сек
Максимальный битрейт : 15,0 Мбит/сек
Ширина : 1920 пикселей
Высота : 1080 пикселей
Соотношение сторон : 16:9
Режим частоты кадров : Постоянный
Частота кадров : 23,976 (24000/1001) кадра/сек
Цветовое пространство : YUV
Субдискретизация насыщенности : 4:2:0
Битовая глубина : 8 бит
Тип развёртки : Прогрессивная
Бит/(Пиксели*Кадры) : 0.252
Размер потока : 8,00 Гбайт (93%)
Библиотека кодирования : x264 core 148 r2623 d5b2374
Настройки программы : cabac=1 / ref=4 / deblock=1:-1:-1 / analyse=0x3:0x133 / me=umh / subme=9 / psy=1 / psy_rd=1.00:0.15 / mixed_ref=1 / me_range=24 / chroma_me=1 / trellis=2 / 8x8dct=1 / cqm=0 / deadzone=21,11 / fast_pskip=1 / chroma_qp_offset=-3 / threads=34 / lookahead_threads=5 / sliced_threads=0 / nr=150 / decimate=1 / interlaced=0 / bluray_compat=0 / constrained_intra=0 / bframes=8 / b_pyramid=2 / b_adapt=2 / b_bias=0 / direct=3 / weightb=1 / open_gop=0 / weightp=2 / keyint=120 / keyint_min=61 / scenecut=0 / intra_refresh=0 / rc_lookahead=120 / rc=crf / mbtree=1 / crf=18.0 / qcomp=0.60 / qpmin=0 / qpmax=69 / qpstep=4 / vbv_maxrate=15000 / vbv_bufsize=31250 / crf_max=0.0 / nal_hrd=vbr / filler=0 / ip_ratio=1.40 / aq=3:1.00
Язык : English
Default : Да
Forced : Нет
Цветовой диапазон : Limited
Основные цвета : BT.709
Характеристики трансфера : BT.709
Коэффициенты матрицы : BT.709
Аудио #1
Идентификатор : 2
Формат : AC-3
Формат/Информация : Audio Coding 3
Идентификатор кодека : A_AC3
Продолжительность : 1 ч. 31 м.
Вид битрейта : Постоянный
Битрейт : 192 Кбит/сек
Каналы : 2 канала
Расположение каналов : Front: L R
Частота : 48,0 КГц
Частота кадров : 31,250 кадров/сек (1536 SPF)
Битовая глубина : 16 бит
Метод сжатия : С потерями
Размер потока : 126 Мбайт (1%)
Заголовок : MVO
Язык : Russian
По умолчанию : Да
Принудительно : Нет
Аудио #2
Идентификатор : 3
Формат : E-AC-3
Формат/Информация : Enhanced Audio Coding 3
Идентификатор кодека : A_EAC3
Продолжительность : 1 ч. 31 м.
Вид битрейта : Постоянный
Битрейт : 224 Кбит/сек
Каналы : 2 канала
Расположение каналов : Front: L R
Частота : 48,0 КГц
Частота кадров : 187,500 кадров/сек (256 SPF)
Метод сжатия : С потерями
Размер потока : 146 Мбайт (2%)
Заголовок : Original
Язык : English
По умолчанию : Нет
Принудительно : Нет
Аудио #3
Идентификатор : 4
Формат : AC-3
Формат/Информация : Audio Coding 3
Идентификатор кодека : A_AC3
Продолжительность : 1 ч. 31 м.
Вид битрейта : Постоянный
Битрейт : 192 Кбит/сек
Каналы : 1 канал
Расположение каналов : Front: C
Частота : 48,0 КГц
Частота кадров : 31,250 кадров/сек (1536 SPF)
Битовая глубина : 16 бит
Метод сжатия : С потерями
Размер потока : 126 Мбайт (1%)
Заголовок : DUB
Язык : French
По умолчанию : Нет
Принудительно : Нет
Текст #1
Идентификатор : 5
Формат : UTF-8
Идентификатор кодека : S_TEXT/UTF8
Идентификатор кодека/Информация : UTF-8 Plain Text
Язык : English
По умолчанию : Нет
Принудительно : Нет
Текст #2
Идентификатор : 6
Формат : UTF-8
Идентификатор кодека : S_TEXT/UTF8
Идентификатор кодека/Информация : UTF-8 Plain Text
Заголовок : SDH
Язык : English
По умолчанию : Нет
Принудительно : Нет
Меню
00:00:00.000 : en:Companions.
00:04:58.018 : en:Uptoun - bound Credits.
00:08:23.691 : en:Would - be muggers.
00:11:03.851 : enraspberryriestly business.
00:16:42.522 : en:Chance to get out
00:21:10.824 : en:Shakedoun.
00:24:00.460 : enraspberryusherman.
00:27:26.499 : en:One last time.
00:35:49.702 : en:The payoff.
00:39:58.617 : en:Sexy bath.
00:44:49.374 : en:Fighters.
00:47:53.425 : en:The last of Freddie.
00:52:11.482 : en:The law makes it real.
00:57:22.293 : en:Dealing montage.
01:01:05.850 : en:March someplace else.
01:05:28.445 : en:Owned by the man.
01:12:43.413 : en:New hires (Super Fly).
01:16:43.286 : enraspberryriest's cut.
01:20:32.515 : en:Elevator switch.
01:24:38.461 : en:Meeting the man.
01:27:06.742 : en:Dirty laundry.
01:29:15.704 : en:End Credits (Super Fly).

Дополнительная информация
• Исходник видео WEB-DL Amazon.

Сборка:
Автор Bot
Категория Зарубежные фильмы
InfoHash 01658FFCB4BFD53A1DF3782AA10B7FC212CE28A7
Файлы (1)
Показать файлы
Трекера
Показать трекера

    Нет комментариев

Войти на сайт

Статистика

  • Всего торрентов: 93290
  • Объёмом: 558.1 Тб
  • Сидов: 3053588
  • Личеров: 178431