Все раздачи Раздачи по тегам Правила Информация Контакты

Ночные игры / Game Night (2018) BDRip 720p | Лицензия

Ночные игры / Game Night (2018) BDRip 720p | Лицензия

Информация о фильме
Название: Ночные игры
Оригинальное название: Game Night
Год выхода: 2018
Жанр: Триллер, комедия, криминал, детектив
Режиссер: Джон Фрэнсис Дейли, Джонатан М. Голдштейн
В ролях: Джейсон Бейтмен, Рэйчел МакАдамс, Кайл Чандлер, Шэрон Хорган, Билли Магнуссен, Ламорн Моррис, Кайли Банбери, Джесси Племонс, Майкл С. Холл, Дэнни Хьюстон

О фильме: История Макса и Энни, которые вместе с другими парами каждую неделю устраивают так называемые «ночные игры». И вот однажды харизматичный брат Макса Брукс организовывает вечер по разгадыванию «убийственного» квеста с «ряжеными» головорезами и агентами ФБР. Получается, похищение Брукса в тот вечер - это розыгрыш... или нет?
Страна: США
Студия: Aggregate Films, Davis Entertainment, New Line Cinema
Продолжительность: 01:40:05
Перевод: Дублированный | Лицензия
Качество: BDRip 720p
Видео: MPEG-4 AVC, 1280x534, 6953 Kbit/s, 23.976 fps
Звук:
Аудио #01: 48 kHz, AC3, 5.1, 640 Kbps | Дублированный | RUS |
Аудио #02: 48 kHz, DTS, 5.1, 1510 Kbps | Оригинал | ENG |
Субтитры: Русские (forced, full), английские

MI
General
Unique ID : 259362231755401699161023740411556494246 (0xC31F594EC36980F8B59D45979B697BA6)
Complete name : D:Video111Game.Night.2018.Lic.BDRip.720p.ExKinoRay.mkv
Format : Matroska
Format version : Version 4 / Version 2
File size : 6.37 GiB
Duration : 1 h 40 min
Overall bit rate : 9 106 kb/s
Movie name : Game Night 2018 from ExKinoRay
Encoded date : UTC 2018-06-13 18:27:19
Writing application : mkvmerge v23.0.0 ('The Bride Said No') 64-bit
Writing library : libebml v1.3.6 + libmatroska v1.4.9
Video
ID : 1
Format : AVC
Format/Info : Advanced Video Codec
Format profile : High@L4.1
Format settings : CABAC / 12 Ref Frames
Format settings, CABAC : Yes
Format settings, ReFrames : 12 frames
Codec ID : V_MPEG4/ISO/AVC
Duration : 1 h 40 min
Bit rate : 6 953 kb/s
Width : 1 280 pixels
Height : 534 pixels
Display aspect ratio : 2.40:1
Frame rate mode : Constant
Frame rate : 23.976 (24000/1001) FPS
Color space : YUV
Chroma subsampling : 4:2:0
Bit depth : 8 bits
Scan type : Progressive
Bits/(Pixel*Frame) : 0.424
Stream size : 4.86 GiB (76%)
Writing library : x264 core 155 r2901 7d0ff22
Encoding settings : cabac=1 / ref=12 / deblock=1:-3:-3 / analyse=0x3:0x133 / me=umh / subme=11 / psy=1 / psy_rd=1.05:0.00 / mixed_ref=1 / me_range=32 / chroma_me=1 / trellis=2 / 8x8dct=1 / cqm=0 / deadzone=21,11 / fast_pskip=0 / chroma_qp_offset=-2 / threads=12 / lookahead_threads=3 / sliced_threads=0 / nr=0 / decimate=0 / interlaced=0 / bluray_compat=0 / constrained_intra=0 / bframes=10 / b_pyramid=2 / b_adapt=2 / b_bias=0 / direct=3 / weightb=1 / open_gop=0 / weightp=2 / keyint=250 / keyint_min=24 / scenecut=40 / intra_refresh=0 / rc_lookahead=250 / rc=crf / mbtree=0 / crf=16.8 / qcomp=0.62 / qpmin=0 / qpmax=69 / qpstep=4 / vbv_maxrate=62500 / vbv_bufsize=78125 / crf_max=0.0 / nal_hrd=none / filler=0 / ip_ratio=1.30 / pb_ratio=1.20 / aq=3:0.80
Language : English
Default : Yes
Forced : No
Audio #1
ID : 2
Format : AC-3
Format/Info : Audio Coding 3
Codec ID : A_AC3
Duration : 1 h 40 min
Bit rate mode : Constant
Bit rate : 640 kb/s
Channel(s) : 6 channels
Channel positions : Front: L C R, Side: L R, LFE
Sampling rate : 48.0 kHz
Frame rate : 31.250 FPS (1536 SPF)
Bit depth : 16 bits
Compression mode : Lossy
Stream size : 458 MiB (7%)
Title : Dub [License]
Language : Russian
Service kind : Complete Main
Default : Yes
Forced : Yes
Audio #2
ID : 3
Format : DTS
Format/Info : Digital Theater Systems
Codec ID : A_DTS
Duration : 1 h 40 min
Bit rate mode : Constant
Bit rate : 1 509 kb/s
Channel(s) : 6 channels
Channel positions : Front: L C R, Side: L R, LFE
Sampling rate : 48.0 kHz
Frame rate : 93.750 FPS (512 SPF)
Bit depth : 24 bits
Compression mode : Lossy
Stream size : 1.06 GiB (17%)
Title : Original
Language : English
Default : No
Forced : No
Text #1
ID : 4
Format : UTF-8
Codec ID : S_TEXT/UTF8
Codec ID/Info : UTF-8 Plain Text
Duration : 1 h 39 min
Bit rate : 4 b/s
Count of elements : 61
Stream size : 3.31 KiB (0%)
Title : Forced
Language : Russian
Default : Yes
Forced : Yes
Text #2
ID : 5
Format : UTF-8
Codec ID : S_TEXT/UTF8
Codec ID/Info : UTF-8 Plain Text
Duration : 1 h 39 min
Bit rate : 135 b/s
Count of elements : 2086
Stream size : 98.7 KiB (0%)
Title : Full
Language : Russian
Default : No
Forced : No
Text #3
ID : 6
Format : UTF-8
Codec ID : S_TEXT/UTF8
Codec ID/Info : UTF-8 Plain Text
Duration : 1 h 39 min
Bit rate : 92 b/s
Count of elements : 2245
Stream size : 67.3 KiB (0%)
Title : Full
Language : English
Default : No
Forced : No
Text #4
ID : 7
Format : UTF-8
Codec ID : S_TEXT/UTF8
Codec ID/Info : UTF-8 Plain Text
Duration : 1 h 39 min
Bit rate : 99 b/s
Count of elements : 2205
Stream size : 72.3 KiB (0%)
Title : SDH
Language : English
Default : No
Forced : No
Menu
00:00:00.000 : en:00:00:00.000
00:10:35.093 : en:00:10:35.093
00:18:37.116 : en:00:18:37.116
00:32:24.860 : en:00:32:24.860
00:42:40.308 : en:00:42:40.308
00:52:27.353 : en:00:52:27.353
01:02:01.301 : en:01:02:01.301
01:11:50.932 : en:01:11:50.932
01:22:36.743 : en:01:22:36.743
01:32:54.903 : en:01:32:54.903

Релиз от: Автор релиза:
Подпишись на меня, кликни по картинке [b]> : [/b]
Автор Bot
Категория Зарубежные фильмы
InfoHash 92B2E50EB9CAE42DF96C7F85FB0608CC1B2074F1
Файлы (1)
Показать файлы
Трекера
Показать трекера
Похожие раздачи

    Нет комментариев

Войти на сайт

Статистика

  • Всего торрентов: 80439
  • Объёмом: 474.9 Тб
  • Сидов: 2160678
  • Личеров: 157645