Все раздачи Раздачи по тегам Правила Информация Контакты

2036, происхождение неизвестно / 2036 Origin Unknown (2018) WEB-DL 1080p | L2

2036, происхождение неизвестно / 2036 Origin Unknown (2018) WEB-DL 1080p | L2

Информация о фильме
Название: 2036, происхождение неизвестно
Оригинальное название: 2036 Origin Unknown
Год выхода: 2018
Жанр: фантастика
Режиссер: Хасраф Дулул
В ролях: Кэти Сакхофф, Джули Кокс, Стивен Кри, Рэй Фиарон, Изабелль Марлоу, Джо Уолтерс, Дэвид К.С. Тсе
О фильме:
Космическая экспедиция обнаруживает на поверхности Марса нечто, способное изменить жизнь человечества навсегда. Но вместо того, чтобы помочь людям раскрыть марсианскую тайну, искусственный интеллект на борту корабля берёт управление на себя.

Страна: Великобритания
Студия: Head Gear Films, Metrol Technology, Origin Unknown Films
Продолжительность: 01:34:34
Перевод: Любительский (двухголосый закадровый) | HiWay Grope
Файл
Кодек: H.264
Качество: WEB-DL 1080p | L2
Видео: AVC/H.264, 1904x804, ~4554 kbps, 24 fps
Звук:
Аудио 1: AC3, 6 ch, 384 Kbps - Русский
Аудио 2: AC3, 6 ch, 384 Kbps - Английский
Субтитры: Aнглийские
Mediainfo
Общее
Уникальный идентификатор : 168749122382868486731172618404435630146 (0x7EF3E61702DEFCEACD4E2D2668609842)
Полное имя : 2036_Origin Unknown.2018.WEB-DL.1080p.mkv
Формат : Matroska
Версия формата : Version 4 / Version 2
Размер файла : 3,52 Гбайт
Продолжительность : 1 ч. 34 м.
Общий поток : 5324 Кбит/сек
Дата кодирования : UTC 2018-06-13 17:25:38
Программа кодирования : mkvmerge v23.0.0 ('The Bride Said No') 64-bit
Библиотека кодирования : libebml v1.3.6 + libmatroska v1.4.9
Видео
Идентификатор : 1
Формат : AVC
Формат/Информация : Advanced Video Codec
Профиль формата : High@L4
Настройки формата : CABAC / 5 Ref Frames
Параметр CABAC формата : Да
Параметр RefFrames формата : 5 кадров
Идентификатор кодека : V_MPEG4/ISO/AVC
Продолжительность : 1 ч. 34 м.
Битрейт : 4554 Кбит/сек
Ширина : 1904 пикселя
Высота : 804 пикселя
Соотношение сторон : 2,35:1
Режим частоты кадров : Постоянный
Частота кадров : 24,000 кадра/сек
Цветовое пространство : YUV
Субдискретизация насыщенности : 4:2:0
Битовая глубина : 8 бит
Тип развёртки : Прогрессивная
Бит/(Пиксели*Кадры) : 0.124
Размер потока : 3,01 Гбайт (86%)
Язык : English
Default : Да
Forced : Нет
Цветовой диапазон : Limited
Основные цвета : BT.709
Характеристики трансфера : BT.709
Коэффициенты матрицы : BT.709
Аудио #1
Идентификатор : 2
Формат : AC-3
Формат/Информация : Audio Coding 3
Идентификатор кодека : A_AC3
Продолжительность : 1 ч. 34 м.
Вид битрейта : Постоянный
Битрейт : 384 Кбит/сек
Каналы : 6 каналов
Расположение каналов : Front: L C R, Side: L R, LFE
Частота : 48,0 КГц
Частота кадров : 31,250 кадров/сек (1536 SPF)
Битовая глубина : 16 бит
Метод сжатия : С потерями
Задержка видео : -42 мс.
Размер потока : 260 Мбайт (7%)
Заголовок : DVO | HiWay Grope
Язык : Russian
ServiceKind : Complete Main
Default : Да
Forced : Нет
Аудио #2
Идентификатор : 3
Формат : AC-3
Формат/Информация : Audio Coding 3
Идентификатор кодека : A_AC3
Продолжительность : 1 ч. 34 м.
Вид битрейта : Постоянный
Битрейт : 384 Кбит/сек
Каналы : 6 каналов
Расположение каналов : Front: L C R, Side: L R, LFE
Частота : 48,0 КГц
Частота кадров : 31,250 кадров/сек (1536 SPF)
Битовая глубина : 16 бит
Метод сжатия : С потерями
Задержка видео : -42 мс.
Размер потока : 260 Мбайт (7%)
Язык : English
ServiceKind : Complete Main
Default : Нет
Forced : Нет
Текст
Идентификатор : 4
Формат : UTF-8
Идентификатор кодека : S_TEXT/UTF8
Идентификатор кодека/Информация : UTF-8 Plain Text
Продолжительность : 1 ч. 29 м.
Битрейт : 47 бит/сек
ElementCount : 978
Размер потока : 30,9 Кбайт (0%)
Язык : English
Default : Нет
Forced : Нет
Меню
00:00:00.000 : en:Chapter 1
00:10:41.641 : en:Chapter 2
00:20:09.208 : en:Chapter 3
00:31:32.891 : en:Chapter 4
00:40:20.418 : en:Chapter 5
00:49:58.996 : en:Chapter 6
01:01:16.673 : en:Chapter 7
01:11:01.257 : en:Chapter 8
01:20:10.806 : en:Chapter 9
01:32:15.530 : en:Chapter 10

Скриншоты
Автор Bot
Категория Зарубежные фильмы
InfoHash 0BE9544EBBC0C61DC9D8C5FB776F082D755ADCD5
Файлы (1)
Показать файлы
Трекера
Показать трекера
Похожие раздачи

    Нет комментариев

Войти на сайт

Статистика

  • Всего торрентов: 80505
  • Объёмом: 475.2 Тб
  • Сидов: 2134601
  • Личеров: 158513