Все раздачи Раздачи по тегам Правила Информация Контакты

Плохие банки / Bad banks [S01] (2018) HDRip 720p | GreenРай Studio

Плохие банки / Bad banks [S01] (2018) HDRip 720p | GreenРай Studio

Информация о фильме
Год выхода: 2018
Наименование: Плохие банки
Оригинальное наименование: Bad banks
Жанр: триллер, драма
Произведено: Германия, Люксембург
Режиссер постановщик: Кристиан Швохов
В главных ролях: Питер Бекер, Джон Кулифорд, Патрик Девейн, София Лопес, Сабина Россбах, Паула Бир, Барри Атсма, Дезире Ноcбуш
О фильме: После ошибочного увольнения из престижного инвестиционного банка в Люксембурге талантливая молодая банкирша Джана Лиекам получает предложение о работе во Франкфурте под руководством выдающегося Габриэля Фенгера, руководителя банка Deutsche Invest. Джане быстро удается произвести впечатление на Фенгера и его команду. Вскоре девушка оказывается разорванной между ее новыми обязательствами и неумолимым шантажом со стороны ее бывшего босса Кристеля Леблана. Сможет ли она и ее карьера пережить эту демонстрацию силы?

Файл
Качество: HDRip 720p
Видео данные: MKV, 1280x640 (2.000), 25.000 fps, 5172 Кбит/с
Аудио данные: AC3, 2 ch, 192 Кбит/с
Перевод: Любительский многоголосый (GreenРай Studio)
Продолжительность: 6 x 00:51:00
Медиаинфо
General
Unique ID : 245324754816209799804154080152977273818 (0xB88FD44284DDBF9B853FCEED2D95F3DA)
Complete name : D:ГРИНРАЙBad.Banks.S01.BDRip.720pBad.Banks.S01E01.BDRip.720p.mkv
Format : Matroska
Format version : Version 4 / Version 2
File size : 1.96 GiB
Duration : 51 min 49 s
Overall bit rate : 5 427 kb/s
Encoded date : UTC 2018-06-01 04:47:57
Writing application : mkvmerge v6.5.0 ('Isn't she lovely') built on Oct 20 2013 12:50:05
Writing library : libebml v1.3.0 + libmatroska v1.4.1
Video
ID : 1
Format : AVC
Format/Info : Advanced Video Codec
Format profile : High@L3.1
Format settings : CABAC / 4 Ref Frames
Format settings, CABAC : Yes
Format settings, RefFrames : 4 frames
Codec ID : V_MPEG4/ISO/AVC
Duration : 51 min 49 s
Bit rate : 5 127 kb/s
Width : 1 280 pixels
Height : 640 pixels
Display aspect ratio : 2.000
Frame rate mode : Constant
Frame rate : 25.000 FPS
Color space : YUV
Chroma subsampling : 4:2:0
Bit depth : 8 bits
Scan type : Progressive
Bits/(Pixel*Frame) : 0.250
Stream size : 1.86 GiB (94%)
Writing library : x264 core 146 r2538 121396c
Encoding settings : cabac=1 / ref=1 / deblock=1:0:0 / analyse=0x3:0x113 / me=hex / subme=2 / psy=1 / psy_rd=1.00:0.00 / mixed_ref=0 / me_range=16 / chroma_me=1 / trellis=0 / 8x8dct=1 / cqm=0 / deadzone=21,11 / fast_pskip=1 / chroma_qp_offset=0 / threads=9 / lookahead_threads=3 / sliced_threads=0 / nr=0 / decimate=1 / interlaced=0 / bluray_compat=0 / constrained_intra=0 / bframes=3 / b_pyramid=2 / b_adapt=1 / b_bias=0 / direct=1 / weightb=1 / open_gop=0 / weightp=1 / keyint=250 / keyint_min=25 / scenecut=40 / intra_refresh=0 / rc_lookahead=10 / rc=crf / mbtree=1 / crf=13.0 / qcomp=0.60 / qpmin=0 / qpmax=69 / qpstep=4 / ip_ratio=1.40 / aq=1:1.00
Default : Yes
Forced : No
Audio
ID : 2
Format : AC-3
Format/Info : Audio Coding 3
Codec ID : A_AC3
Duration : 51 min 49 s
Bit rate mode : Constant
Bit rate : 192 kb/s
Channel(s) : 2 channels
Channel positions : Front: L R
Sampling rate : 48.0 kHz
Frame rate : 31.250 FPS (1536 SPF)
Bit depth : 16 bits
Compression mode : Lossy
Stream size : 71.2 MiB (4%)
Service kind : Complete Main
Default : Yes
Forced : No

Внимание, имеется видео и аудио реклама от спонсора показа
Скриншоты

Релиз от:
Автор Bot
Категория Сериалы
InfoHash 39C3A0F288EA4741BF8D9EE840259177C70B7538
Файлы (6)
Показать файлы
Трекера
Показать трекера
Похожие раздачи

    Нет комментариев

Войти на сайт

Статистика

  • Всего торрентов: 80834
  • Объёмом: 477.3 Тб
  • Сидов: 2299041
  • Личеров: 178232