Все раздачи Раздачи по тегам Правила Информация Контакты

Шекспир и Хэтэуэй: Частные детективы / Shakespeare & Hathaway: Private Investigators [01x01-03 из 10] (2018) HDTVRip 1080p | L

Шекспир и Хэтэуэй: Частные детективы / Shakespeare & Hathaway: Private Investigators [01x01-03 из 10] (2018) HDTVRip 1080p | L

Информация о фильме
Год выхода: 2018
Наименование: Шекспир и Хэтэуэй: Частные детективы
Оригинальное наименование: Shakespeare & Hathaway: Private Investigators
Страна: Великобритания
Жанр: драма, комедия, детектив
Режиссер постановщик: Пётр Шкопяк, Йен Барбер, Каролина Джаметта
В главных ролях: Марк Бентон, Джо Джойнер, Patrick Walshe McBride, Эмбер Агар, Томос Имс, Роберта Тейлор, Ашек Ахтар, Джои Бэти, Ричард Ламсден, Скарлет Мерфи
О фильме: Луэлла Шекспир и Фрэнк Хэтэуэй, пара чудаков-детективов, расследуют преступления в Стратфорд-апон-Эйвоне.

Файл
Качество: HDTVRip 1080p
Видео данные: MKV, 1920x1080 (16:9), 25.000 fps, 5062 Кбит/с
Аудио данные: AC3, 2 ch, 192 Кбит/с
Перевод: Любительский многоголосый (GreenРай Studio)
Продолжительность: 3 x 00:46:00
Медиаинфо
General
Unique ID : 191834787688317653668171678124539874157 (0x905209444C8A9BCDA068FB7080F78B6D)
Complete name : D:ГРИНРАЙShakespeare.And.Hathaway.Private.Investigators.S01.1080pShakespeare.And.Hathaway.Private.Investigators.S01E01.HDTV.1080p.mkv
Format : Matroska
Format version : Version 4 / Version 2
File size : 1.72 GiB
Duration : 46 min 0 s
Overall bit rate : 5 360 kb/s
Encoded date : UTC 2018-06-11 17:24:11
Writing application : mkvmerge v6.5.0 ('Isn't she lovely') built on Oct 20 2013 12:50:05
Writing library : libebml v1.3.0 + libmatroska v1.4.1
Video
ID : 1
Format : AVC
Format/Info : Advanced Video Codec
Format profile : High@L3.1
Format settings : CABAC / 4 Ref Frames
Format settings, CABAC : Yes
Format settings, RefFrames : 4 frames
Codec ID : V_MPEG4/ISO/AVC
Duration : 46 min 0 s
Bit rate : 5 062 kb/s
Width : 1 920 pixels
Height : 1 080 pixels
Display aspect ratio : 16:9
Frame rate mode : Constant
Frame rate : 25.000 FPS
Color space : YUV
Chroma subsampling : 4:2:0
Bit depth : 8 bits
Scan type : Progressive
Bits/(Pixel*Frame) : 0.098
Stream size : 1.63 GiB (94%)
Writing library : x264 core 146 r2538 121396c
Encoding settings : cabac=1 / ref=1 / deblock=1:0:0 / analyse=0x3:0x113 / me=hex / subme=2 / psy=1 / psy_rd=1.00:0.00 / mixed_ref=0 / me_range=16 / chroma_me=1 / trellis=0 / 8x8dct=1 / cqm=0 / deadzone=21,11 / fast_pskip=1 / chroma_qp_offset=0 / threads=9 / lookahead_threads=3 / sliced_threads=0 / nr=0 / decimate=1 / interlaced=0 / bluray_compat=0 / constrained_intra=0 / bframes=3 / b_pyramid=2 / b_adapt=1 / b_bias=0 / direct=1 / weightb=1 / open_gop=0 / weightp=1 / keyint=250 / keyint_min=25 / scenecut=40 / intra_refresh=0 / rc_lookahead=10 / rc=crf / mbtree=1 / crf=17.0 / qcomp=0.60 / qpmin=0 / qpmax=69 / qpstep=4 / ip_ratio=1.40 / aq=1:1.00
Default : Yes
Forced : No
Audio
ID : 2
Format : AC-3
Format/Info : Audio Coding 3
Codec ID : A_AC3
Duration : 46 min 0 s
Bit rate mode : Constant
Bit rate : 192 kb/s
Channel(s) : 2 channels
Channel positions : Front: L R
Sampling rate : 48.0 kHz
Frame rate : 31.250 FPS (1536 SPF)
Bit depth : 16 bits
Compression mode : Lossy
Stream size : 63.2 MiB (4%)
Service kind : Complete Main
Default : Yes
Forced : No

Внимание, имеется видео и аудио реклама от спонсора показа
Скриншоты

Релиз от:
Автор Bot
Категория Сериалы
InfoHash 57CBACA4C57AC2353B9F1EB4DE6687E4F246BBC2
Файлы (3)
Показать файлы
Трекера
Показать трекера
Похожие раздачи

    Нет комментариев

Войти на сайт

Статистика

  • Всего торрентов: 80834
  • Объёмом: 477.3 Тб
  • Сидов: 2299190
  • Личеров: 178242