Все раздачи Раздачи по тегам Правила Информация Контакты

Бойтесь ходячих мертвецов / Fear the Walking Dead [04x01-06 из 16] (2018) WEB-DL 1080p | KANSAI

Бойтесь ходячих мертвецов / Fear the Walking Dead [04x01-06 из 16] (2018) WEB-DL 1080p | KANSAI

Информация о фильме
Название: Бойтесь ходячих мертвецов
Оригинальное название: Fear the Walking Dead
Год выпуска: 2018
Страна: США
Жанр: Ужасы, фантастика, триллер, драма
Перевод: Любительский [многоголосый] | KANSAI Studio
Продолжительность: ~00:50:00
В ролях: Ким Диккенс, Фрэнк Диллейн, Алисия Дебнем-Кэри, Мэгги Грейс, Колман Доминго, Денай Гарсиа, Гаррет Диллахант, Ленни Джеймс, Дженна Элфман и др.
Описание:
Действия сериала происходят параллельно с событиями зомби-апокалипсиса, показанными в сериале «Ходячие мертвецы», но в совершенно другом месте — Лос-Анджелесе. В центре сюжета находится семья матери-одиночки и консультанта по профессиям Мэдисон Кларк и разведённого учителя Трэвиса Манавы, которые вместе пытаются выжить в зомби-апокалипсисе.
Рейтинг:

Качество: WEBDL 1080p | Fear.the.Walking.Dead.S04.1080p.WEBDL.H264-DEFLATE
Формат: MKV
Видео: AVC, 1920x1080 (16:9), ~10800 kbps, 23,976 fps, 0,216 bpp
Аудио №1: русский / AC3 / 2.0 / 48 kHz / 192 kbps
Аудио №2: английский / E-AC3 / 5.1 / 48 kHz / 640 kbps
Реклама: Присутствует звуковая.
ОтчетМедиаИнфо

General
Unique ID : 178689115581918279837655563626404959264 (0x866E45978999ECCA84E2294B9FDCD420)
Complete name : G:_kansaitorFear.the.Walking.Dead.S04.1080p.WEBDL-KANSAIFear.the.Walking.Dead.S04E01.1080p.WEBDL-KANSAI.mkv
Format : Matroska
Format version : Version 4 / Version 2
File size : 4.06 GiB
Duration : 49 min 8 s
Overall bit rate mode : Variable
Overall bit rate : 11.8 Mb/s
Encoded date : UTC 2018-04-27 13:51:39
Writing application : mkvmerge v6.7.0 ('Back to the Ground') 64bit built on Jan 8 2014 15:10:52
Writing library : libebml v1.3.0 + libmatroska v1.4.1
Video
ID : 1
Format : AVC
Format/Info : Advanced Video Codec
Format profile : High@L4
Format settings : CABAC / 4 Ref Frames
Format settings, CABAC : Yes
Format settings, RefFrames : 4 frames
Codec ID : V_MPEG4/ISO/AVC
Duration : 49 min 8 s
Bit rate mode : Variable
Bit rate : 10.8 Mb/s
Maximum bit rate : 15.0 Mb/s
Width : 1 920 pixels
Height : 1 080 pixels
Display aspect ratio : 16:9
Frame rate mode : Constant
Frame rate : 23.976 (24000/1001) FPS
Color space : YUV
Chroma subsampling : 4:2:0
Bit depth : 8 bits
Scan type : Progressive
Bits/(Pixel*Frame) : 0.216
Stream size : 3.69 GiB (91%)
Language : English
Default : Yes
Forced : No
Color range : Limited
Color primaries : BT.709
Transfer characteristics : BT.709
Matrix coefficients : BT.709
Audio #1
ID : 2
Format : AC-3
Format/Info : Audio Coding 3
Codec ID : A_AC3
Duration : 49 min 8 s
Bit rate mode : Constant
Bit rate : 192 kb/s
Channel(s) : 2 channels
Channel positions : Front: L R
Sampling rate : 48.0 kHz
Frame rate : 31.250 FPS (1536 SPF)
Bit depth : 16 bits
Compression mode : Lossy
Stream size : 67.5 MiB (2%)
Title : KANSAI Studio
Language : Russian
Service kind : Complete Main
Default : Yes
Forced : No
Audio #2
ID : 3
Format : E-AC-3
Format/Info : Enhanced Audio Coding 3
Codec ID : A_EAC3
Duration : 49 min 8 s
Bit rate mode : Constant
Bit rate : 640 kb/s
Channel(s) : 6 channels
Channel positions : Front: L C R, Side: L R, LFE
Sampling rate : 48.0 kHz
Frame rate : 187.500 FPS (256 SPF)
Compression mode : Lossy
Stream size : 225 MiB (5%)
Language : English
Service kind : Complete Main
Default : No
Forced : No
Text #1
ID : 4
Format : UTF-8
Codec ID : S_TEXT/UTF8
Codec ID/Info : UTF-8 Plain Text
Title : English
Language : English
Default : No
Forced : No
Text #2
ID : 5
Format : UTF-8
Codec ID : S_TEXT/UTF8
Codec ID/Info : UTF-8 Plain Text
Title : English (SDH)
Language : English
Default : No
Forced : No
Скриншоты

Автор Bot
Категория Сериалы
InfoHash BBC1DEC19740D86D721903ADEA2C631267B6C4A7
Файлы (6)
Показать файлы
Трекера
Показать трекера
Похожие раздачи

    Нет комментариев

Войти на сайт

Статистика

  • Всего торрентов: 80834
  • Объёмом: 477.3 Тб
  • Сидов: 2299439
  • Личеров: 178256