Все раздачи Раздачи по тегам Правила Информация Контакты

Клинок Бессмертного / Mugen no junin (2017) HDRip-AVC | L1

Клинок Бессмертного / Mugen no junin (2017) HDRip-AVC | L1

Информация о фильме
Название: Клинок Бессмертного
Оригинальное название: Mugen no junin
Год выхода: 2017
Жанр: Боевик, драма, исторический
Режиссер: Такаси Миике
В ролях: Такуя Кимура, Хана Сугисаки, Сота Фукуси, Хаято Итихара, Эрика Тода, Казуки Китамура, Тиаки Курияма, Синносукэ Мицусима, Кэн Канэко, Ёко Ямамото
О фильме:
Самурай Мандзи случайно убил мужа сестры, после чего та немного подвинулась умом. Больше у девушки никого на свете нет, поэтому старший брат живёт только для того, чтобы её защищать. Однажды злодеи убивают сестру и калечат Мандзи, который желает лишь одного — смерти, но рядом вдруг оказывается странная старушка. Она заражает самурая кровяными червями — загадочными паразитами, которые делают своего носителя бессмертным, затягивая раны и восстанавливая отрубленные конечности. 80 лет спустя та же старушка направляет к самураю девушку, желающую отомстить за смерть отца. Девушку, как две капли воды похожую на покойную сестру Мандзи.

Выпущено: Япония, Великобритания, Warner Bros., Oriental Light and Magic, Recorded Picture Company
Продолжительность: 02:20:58
Перевод: Любительское одноголосое (BadBajo)
Файл
Кодек: H.264
Качество: HDRip (AVC)
Видео: MPEG-4 AVC, 673 Кбит/с, 720x302
Звук: AАС, 2 ch, 64 Кбит/с
Субтитры: Английские
MediaInfo
Формат : Matroska
Версия формата : Version 4 / Version 2
Размер файла : 745 Мбайт
Продолжительность : 2 ч. 21 м.
Общий поток : 737 Кбит/сек
Название фильма : Blade.of.the.Immortal.2017.AVO.BadBajo.HDRip.AVC.ExKinoRay
Дата кодирования : UTC 2017-11-13 05:59:07
Программа кодирования : mkvmerge v17.0.0 ('Be Ur Friend') 64-bit
Библиотека кодирования : libebml v1.3.5 + libmatroska v1.4.8
Видео
Идентификатор : 1
Формат : AVC
Формат/Информация : Advanced Video Codec
Профиль формата : High@L4.1
Параметр CABAC формата : Да
Параметр ReFrames формата : 10 кадров
Идентификатор кодека : V_MPEG4/ISO/AVC
Продолжительность : 2 ч. 20 м.
Битрейт : 673 Кбит/сек
Ширина : 720 пикселей
Высота : 302 пикселя
Соотношение сторон : 2,40:1
Режим частоты кадров : Постоянный
Частота кадров : 23,976 (24000/1001) кадра/сек
Цветовое пространство : YUV
Субдискретизация насыщенности : 4:2:0
Битовая глубина : 8 бит
Тип развёртки : Прогрессивная
Бит/(Пиксели*Кадры) : 0.129
Размер потока : 678 Мбайт (91%)
Заголовок : ExKinoRay
Библиотека кодирования : x264 core 148 r2744 b97ae06
Настройки программы : cabac=1 / ref=10 / deblock=1:-2:-2 / analyse=0x3:0x133 / me=umh / subme=11 / psy=1 / psy_rd=1.00:0.00 / mixed_ref=1 / me_range=32 / chroma_me=1 / trellis=2 / 8x8dct=1 / cqm=0 / deadzone=21,11 / fast_pskip=0 / chroma_qp_offset=-3 / threads=3 / lookahead_threads=1 / sliced_threads=0 / nr=0 / decimate=0 / interlaced=0 / bluray_compat=0 / constrained_intra=0 / bframes=10 / b_pyramid=2 / b_adapt=2 / b_bias=0 / direct=3 / weightb=1 / open_gop=0 / weightp=2 / keyint=240 / keyint_min=23 / scenecut=40 / intra_refresh=0 / rc_lookahead=40 / rc=2pass / mbtree=0 / bitrate=673 / ratetol=1.0 / qcomp=0.60 / qpmin=0 / qpmax=69 / qpstep=4 / cplxblur=20.0 / qblur=0.5 / vbv_maxrate=50000 / vbv_bufsize=62500 / nal_hrd=none / filler=0 / ip_ratio=1.40 / pb_ratio=1.30 / aq=2:1.00
Default : Да
Forced : Нет
Аудио
Идентификатор : 2
Формат : AAC
Формат/Информация : Advanced Audio Codec
Профиль формата : LC
Идентификатор кодека : A_AAC
Продолжительность : 2 ч. 21 м.
Битрейт : 63,8 Кбит/сек
Каналы : 2 канала
Расположение каналов : Front: L R
Частота : 48,0 КГц
Частота кадров : 46,875 кадров/сек (1024 spf)
Метод сжатия : С потерями
Задержка видео : 9 мс.
Размер потока : 64,5 Мбайт (9%)
Язык : Russian
Default : Да
Forced : Нет
Текст
Идентификатор : 3
Формат : UTF-8
Идентификатор кодека : S_TEXT/UTF8
Идентификатор кодека/Информация : UTF-8 Plain Text
Продолжительность : 2 ч. 16 м.
Битрейт : 24 бит/сек
Count of elements : 976
Размер потока : 24,3 Кбайт (0%)
Язык : English
Default : Нет
Forced : Нет
Меню
00:00:00.000 : en:Chapter 01
00:11:51.168 : en:Chapter 02
00:25:10.675 : en:Chapter 03
00:42:28.254 : en:Chapter 04
00:52:53.420 : en:Chapter 05
01:01:27.684 : en:Chapter 06
01:16:27.583 : en:Chapter 07
01:28:38.855 : en:Chapter 08
01:36:22.109 : en:Chapter 09
01:45:16.518 : en:Chapter 10
02:01:52.013 : en:Chapter 11
02:16:54.080 : en:Chapter 12
02:20:57.073 : en:Chapter 13

Скриншоты


Релиз от:
Автор Bot
Категория Зарубежные фильмы
InfoHash 9C98BC25C0EDA9E927FB08D89AD340CF2D961685
Файлы (1)
Показать файлы
Трекера
Показать трекера
Похожие раздачи

    Нет комментариев

Войти на сайт

Статистика

  • Всего торрентов: 86487
  • Объёмом: 512.4 Тб
  • Сидов: 2677866
  • Личеров: 177024