A PHP Error was encountered

Severity: Notice

Message: Trying to get property 'id' of non-object

Filename: controllers/Torrent.php

Line Number: 25

Backtrace:

File: /home/torr/www/application/controllers/Torrent.php
Line: 25
Function: _error_handler

File: /home/torr/www/public/index.php
Line: 317
Function: require_once

Стрэттон: Первое задание / Stratton (2017) BDRip 1080p | L | 7.7 Гб - ToRR.ws

Подождите, загружаю...

Все раздачи Раздачи по тегам Правила Информация Контакты

Стрэттон: Первое задание / Stratton (2017) BDRip 1080p | L

Стрэттон: Первое задание / Stratton (2017) BDRip 1080p | L

Информация о фильме
Название: Стрэттон: Первое задание
Оригинальное название: Stratton
Год выхода: 2017
Жанр: Боевик, триллер
Режиссер: Саймон Уэст
В ролях: Доминик Купер, Остин Стоуэлл, Джемма Чан, Конни Нильсен, Томас Кречман, Том Фелтон, Джейк Фэйрбразер, Тайлер Хэклин, Дерек Джекоби, Лиззи Уинклер
О фильме:
Коммандос спецподразделения вооруженных сил Великобритании, Джон Стрэттон, вступает в схватку с группой международных террористов. Их цель — осуществить теракт в Лондоне при помощи современного биологического оружия. Стрэттону придется действовать крайне решительно, иначе можно просто не успеть предотвратить трагедию.

Страна: Великобритания
Студия: Atomic Arts, GFM films, SquareOne Entertainment, Stratton Film Productions, Twickenham Film Studios
Продолжительность: 01:34:28
Перевод: Любительский, многоголосый ~ Синема УС
Файл
Кодек: MPEG-4 AVC
Качество: BDRip 1080p
Видео: 1920x804, 9700kb/s,23.976fps
Звук:
1] 448kb/s, 6ch, 48000kHz, AC3 [RUS]
2] 1509kb/s, 6ch, 48000kHz, DTS [ENG]
Субтитры: Русские [Forced] & Английские
РЕКЛАМА ОТСУТСТВУЕТ
MI

Формат : Matroska
Версия формата : Version 4 / Version 2
Размер файла : 7,68 Гбайт
Продолжительность : 1 ч. 34 м.
Общий поток : 11,6 Мбит/сек
Дата кодирования : UTC 2017-11-14 15:59:28
Программа кодирования : mkvmerge v6.1.0 ('Old Devil') built on Mar 4 2013 09:10:42
Библиотека кодирования : libebml v1.3.0 + libmatroska v1.4.0
Видео
Идентификатор : 1
Формат : AVC
Формат/Информация : Advanced Video Codec
Профиль формата : High@L5
Настройки формата : CABAC / 9 Ref Frames
Параметр CABAC формата : Да
Параметр RefFrames формата : 9 кадров
Идентификатор кодека : V_MPEG4/ISO/AVC
Продолжительность : 1 ч. 34 м.
Битрейт : 9700 Кбит/сек
Ширина : 1920 пикселей
Высота : 804 пикселя
Соотношение сторон : 2,40:1
Режим частоты кадров : Постоянный
Частота кадров : 23,976 (24000/1001) кадра/сек
Цветовое пространство : YUV
Субдискретизация насыщенности : 4:2:0
Битовая глубина : 8 бит
Тип развёртки : Прогрессивная
Бит/(Пиксели*Кадры) : 0.262
Размер потока : 6,24 Гбайт (81%)
Библиотека кодирования : x264 core 152 r2851M ba24899
Настройки программы : cabac=1 / ref=9 / deblock=1:-2:-2 / analyse=0x3:0x113 / me=umh / subme=10 / psy=1 / psy_rd=1.05:0.10 / mixed_ref=1 / me_range=32 / chroma_me=1 / trellis=2 / 8x8dct=1 / cqm=0 / deadzone=21,11 / fast_pskip=0 / chroma_qp_offset=-3 / threads=13 / lookahead_threads=1 / sliced_threads=0 / nr=0 / decimate=1 / interlaced=0 / bluray_compat=0 / constrained_intra=0 / bframes=6 / b_pyramid=2 / b_adapt=2 / b_bias=0 / direct=3 / weightb=1 / open_gop=0 / weightp=2 / keyint=240 / keyint_min=24 / scenecut=40 / intra_refresh=0 / rc_lookahead=60 / rc=2pass / mbtree=1 / bitrate=9700 / ratetol=1.0 / qcomp=0.70 / qpmin=3 / qpmax=69 / qpstep=4 / cplxblur=20.0 / qblur=0.5 / ip_ratio=1.40 / aq=2:1.00
Default : Да
Forced : Нет
Аудио #1
Идентификатор : 2
Формат : AC-3
Формат/Информация : Audio Coding 3
Параметр Endianness формата : Big
Идентификатор кодека : A_AC3
Продолжительность : 1 ч. 34 м.
Вид битрейта : Постоянный
Битрейт : 448 Кбит/сек
Каналы : 6 каналов
Расположение каналов : Front: L C R, Side: L R, LFE
Частота : 48,0 КГц
Частота кадров : 31,250 кадров/сек (1536 SPF)
Битовая глубина : 16 бит
Метод сжатия : С потерями
Размер потока : 303 Мбайт (4%)
Язык : Russian
Default : Да
Forced : Нет
Аудио #2
Идентификатор : 3
Формат : DTS
Формат/Информация : Digital Theater Systems
Режим : 16
Параметр Endianness формата : Big
Идентификатор кодека : A_DTS
Продолжительность : 1 ч. 34 м.
Вид битрейта : Постоянный
Битрейт : 1509 Кбит/сек
Каналы : 6 каналов
Расположение каналов : Front: L C R, Side: L R, LFE
Частота : 48,0 КГц
Частота кадров : 93,750 кадра/сек (512 SPF)
Битовая глубина : 24 бит
Метод сжатия : С потерями
Размер потока : 1020 Мбайт (13%)
Язык : English
Default : Нет
Forced : Нет
Statistics Tags Issue : mkvmerge v8.5.0 ('Vanishing Act') 64bit 2017-04-26 20:52:49 / mkvmerge v6.1.0 ('Old Devil') built on Mar 4 2013 09:10:42 2017-11-14 15:59:28
FromStats_BitRate : 1509000
FromStats_Duration : 01:34:28.672000000
FromStats_FrameCount : 531438
FromStats_StreamSize : 1069253256
Текст #1
Идентификатор : 4
Формат : UTF-8
Идентификатор кодека : S_TEXT/UTF8
Идентификатор кодека/Информация : UTF-8 Plain Text
Заголовок : Forced
Язык : Russian
Default : Да
Forced : Нет
Текст #2
Идентификатор : 5
Формат : UTF-8
Идентификатор кодека : S_TEXT/UTF8
Идентификатор кодека/Информация : UTF-8 Plain Text
Язык : English
Default : Нет
Forced : Нет
Меню
00:00:00.000 : en:00:00:00.000
00:10:59.659 : en:00:10:59.659
00:17:43.062 : en:00:17:43.062
00:26:32.800 : en:00:26:32.800
00:37:46.264 : en:00:37:46.264
00:49:40.978 : en:00:49:40.978
00:59:01.037 : en:00:59:01.037
01:11:31.287 : en:01:11:31.287
01:18:52.353 : en:01:18:52.353
01:27:23.238 : en:01:27:23.238
Скриншоты
Автор Bot
Категория Зарубежные фильмы
InfoHash 931585E5400EAF552D915AA549DE38C955433273
Файлы (1)
Показать файлы
Трекера
Показать трекера
Похожие раздачи

    Нет комментариев

Войти на сайт

Статистика

  • Всего торрентов: 73745
  • Объёмом: 423.3 Тб
  • Сидов: 2094369
  • Личеров: 168725