Все раздачи Раздачи по тегам Правила Информация Контакты

Заложники (2017) BDRip 1080p | Лицензия

Заложники (2017) BDRip 1080p | Лицензия

Информация о фильме
Оригинальное название: Заложники
Год выпуска: 2017
Жанр: Драма, триллер, биография, история
Выпущено: Россия, Грузия, 20 Steps Productions, Extreme Emotions, «Кинокомпания «Небо»
Режиссер: Резо Гигинеишвили
В ролях: Иракли Квирикадзе, Тинатин Далакишвили, Гига Датиашвили, Гиорги Грдзелидзе, Георгий Табидзе, Гиорги Хурцилава, Вахтанг Чачанидзе, Екатерина Калатозишвили, Бека Лемонджава, Мераб Нинидзе
О фильме: Начало 80-х. Советская Грузия. Всего несколько лет до распада Советского Союза. Молодые люди из уважаемых грузинских семей ищут себя в условиях закрытой системы. Музыка Beatles, джинсы, американские сигареты, положение в обществе, гарантированное будущее... У них, казалось, было все, кроме одного — свободы. Цена этой свободы окажется слишком высока... Подлинная история о событиях 1983 года, когда шесть парней и одна девушка пытались угнать самолет с целью побега из СССР.

Качество: BDRip (1080p)
Видео: MPEG-4 AVC, 8921 Кбит/с, 1920x720, 24 кадр/с
Аудио: Русский (AC3, 6 ch, 640 Кбит/с), (DTS, 6 ch, 1509 Кбит/с), грузинский (DTS, 6 ch, 1509 Кбит/с)
Размер: 9.12 ГБ
Продолжительность: 01:43:49
Перевод: Дублированный
Субтитры: Русские
Озвучивание - (Лицензия)
Сохранены оригинальные чаптеры как на Blu-Ray.
x264

x264 [info]: frame I:783 Avg QP:14.41 size:161891
x264 [info]: frame P:37460 Avg QP:17.17 size: 78700
x264 [info]: frame B:111272 Avg QP:18.53 size: 34768
x264 [info]: consecutive B-frames: 2.4% 6.8% 11.2% 29.7% 21.0% 17.0% 7.5% 0.9% 2.4% 0.4% 0.8%
x264 [info]: mb I I16..4: 18.7% 56.9% 24.4%
x264 [info]: mb P I16..4: 9.9% 22.4% 5.4% P16..4: 24.5% 23.4% 6.3% 0.8% 0.1% skip: 7.4%
x264 [info]: mb B I16..4: 4.4% 4.1% 1.3% B16..8: 32.7% 16.8% 2.7% direct:10.1% skip:28.1% L0:42.3% L1:42.9% BI:14.8%
x264 [info]: 8x8 transform intra:52.1% inter:53.4%
x264 [info]: direct mvs spatial:98.3% temporal:1.7%
x264 [info]: coded y,uvDC,uvAC intra: 83.5% 90.6% 78.3% inter: 30.6% 43.4% 26.1%
x264 [info]: i16 v,h,dc,p: 13% 13% 37% 38%
x264 [info]: i8 v,h,dc,ddl,ddr,vr,hd,vl,hu: 11% 9% 17% 8% 10% 11% 10% 11% 12%
x264 [info]: i4 v,h,dc,ddl,ddr,vr,hd,vl,hu: 18% 11% 38% 4% 6% 6% 6% 5% 7%
x264 [info]: i8c dc,h,v,p: 51% 18% 18% 13%
x264 [info]: Weighted P-Frames: Y:1.9% UV:0.5%
x264 [info]: ref P L0: 50.5% 10.7% 22.0% 8.0% 8.1% 0.6% 0.0%
x264 [info]: ref B L0: 80.4% 14.2% 4.1% 1.3%
x264 [info]: ref B L1: 94.0% 6.0%
x264 [info]: kb/s:8916.62

Инфо-файл

Общее
Уникальный идентификатор : 240889952999199275540771448806180041377 (0xB539B7A61B03B3EE8DF0895AD292B2A1)
Полное имя : D:ЗагрузкиHostages.2017.x264.BDRip.(1080p).OlLanDGroup.mkv
Формат : Matroska
Версия формата : Version 2
Размер файла : 9,12 Гбайт
Продолжительность : 1 ч. 43 м.
Общий поток : 12,6 Мбит/сек
Название фильма : Заложники.2017.Rip by: ollan
Дата кодирования : UTC 2017-11-13 03:43:25
Программа кодирования : mkvmerge v5.6.0 ('Kenya Kane') built on May 27 2012 16:44:04
Библиотека кодирования : libebml v1.2.3 + libmatroska v1.3.0
Attachements : Cover - Hostages..png
Видео
Идентификатор : 1
Формат : AVC
Формат/Информация : Advanced Video Codec
Профиль формата : High@L4.1
Параметр CABAC формата : Да
Параметр ReFrames формата : 5 кадров
Идентификатор кодека : V_MPEG4/ISO/AVC
Продолжительность : 1 ч. 43 м.
Битрейт : 8921 Кбит/сек
Ширина : 1920 пикселей
Высота : 720 пикселей
Соотношение сторон : 2,667
Режим частоты кадров : Постоянный
Частота кадров : 24,000 кадра/сек
Цветовое пространство : YUV
Субдискретизация насыщенности : 4:2:0
Битовая глубина : 8 бит
Тип развёртки : Прогрессивная
Бит/(Пиксели*Кадры) : 0.269
Размер потока : 6,29 Гбайт (69%)
Библиотека кодирования : x264 core 146 r2538 121396c
Настройки программы : cabac=1 / ref=5 / deblock=1:-3:-3 / analyse=0x3:0x133 / me=umh / subme=11 / psy=1 / psy_rd=0.95:0.05 / mixed_ref=1 / me_range=64 / chroma_me=1 / trellis=2 / 8x8dct=1 / cqm=0 / deadzone=21,11 / fast_pskip=0 / chroma_qp_offset=-3 / threads=12 / lookahead_threads=3 / sliced_threads=0 / nr=0 / decimate=0 / interlaced=0 / bluray_compat=0 / constrained_intra=0 / bframes=10 / b_pyramid=2 / b_adapt=2 / b_bias=0 / direct=3 / weightb=1 / open_gop=0 / weightp=2 / keyint=240 / keyint_min=23 / scenecut=40 / intra_refresh=0 / rc_lookahead=40 / rc=2pass / mbtree=0 / bitrate=8921 / ratetol=1.0 / qcomp=0.60 / qpmin=0 / qpmax=69 / qpstep=4 / cplxblur=20.0 / qblur=0.5 / vbv_maxrate=50000 / vbv_bufsize=62500 / nal_hrd=none / filler=0 / ip_ratio=1.40 / pb_ratio=1.30 / aq=1:1.00
Язык : Georgian
Default : Да
Forced : Нет
Аудио #1
Идентификатор : 2
Формат : AC-3
Формат/Информация : Audio Coding 3
Расширение режима : CM (complete main)
Параметр Endianness формата : Big
Идентификатор кодека : A_AC3
Продолжительность : 1 ч. 43 м.
Вид битрейта : Постоянный
Битрейт : 640 Кбит/сек
Каналы : 6 каналов
Расположение каналов : Front: L C R, Side: L R, LFE
Частота : 48,0 КГц
Частота кадров : 31,250 кадров/сек (1536 spf)
Метод сжатия : С потерями
Размер потока : 475 Мбайт (5%)
Заголовок : Дублированный (Лицензия)
Язык : Russian
Default : Да
Forced : Нет
Аудио #2
Идентификатор : 3
Формат : DTS
Формат/Информация : Digital Theater Systems
Режим : 16
Параметр Endianness формата : Big
Идентификатор кодека : A_DTS
Продолжительность : 1 ч. 43 м.
Вид битрейта : Постоянный
Битрейт : 1509 Кбит/сек
Каналы : 6 каналов
Расположение каналов : Front: L C R, Side: L R, LFE
Частота : 48,0 КГц
Частота кадров : 93,750 кадра/сек (512 spf)
Битовая глубина : 24 бит
Метод сжатия : С потерями
Размер потока : 1,09 Гбайт (12%)
Заголовок : Дублированный (Лицензия)
Язык : Russian
Default : Нет
Forced : Нет
Аудио #3
Идентификатор : 4
Формат : DTS
Формат/Информация : Digital Theater Systems
Режим : 16
Параметр Endianness формата : Big
Идентификатор кодека : A_DTS
Продолжительность : 1 ч. 43 м.
Вид битрейта : Постоянный
Битрейт : 1509 Кбит/сек
Каналы : 6 каналов
Расположение каналов : Front: L C R, Side: L R, LFE
Частота : 48,0 КГц
Частота кадров : 93,750 кадра/сек (512 spf)
Битовая глубина : 24 бит
Метод сжатия : С потерями
Размер потока : 1,09 Гбайт (12%)
Язык : Georgian
Default : Нет
Forced : Нет
Текст
Идентификатор : 5
Формат : UTF-8
Идентификатор кодека : S_TEXT/UTF8
Идентификатор кодека/Информация : UTF-8 Plain Text
Заголовок : Full
Язык : Russian
Default : Нет
Forced : Нет
Меню
00:00:00.000 : :Chapter 01
00:02:01.250 : :Chapter 02
00:15:40.250 : :Chapter 03
00:28:47.291 : :Chapter 04
00:44:00.125 : :Chapter 05
00:55:02.791 : :Chapter 06
01:07:50.083 : :Chapter 07
01:18:44.375 : :Chapter 08
01:31:25.000 : :Chapter 09

Скриншоты





Релиз от: Rip by:
Автор Bot
Категория Зарубежные фильмы
InfoHash B036B4925930E55B2DE06FB19AB6C2D00563981B
Файлы (1)
Показать файлы
Трекера
Показать трекера
Похожие раздачи
Название Добавлен Размер Сид Лич
Заложники (2017) WEB-DLRip | iTunes 23/12/2017 1.4 Гб 0 0
Заложники (2017) BDRip-AVC | Лицензия 23/12/2017 1.5 Гб 18 1
Заложники (2017) BDRemux 1080p | Лицензия 23/12/2017 17.8 Гб 1 0
Заложники (2017) BDRip | Лицензия 23/12/2017 746.3 Мб 6 0
Заложники (2017) BDRip 720p | Лицензия 15/11/2017 4.2 Гб 19 0

    Нет комментариев

Войти на сайт

Статистика

  • Всего торрентов: 86487
  • Объёмом: 512.4 Тб
  • Сидов: 2677527
  • Личеров: 177009