Подождите, загружаю...

Все раздачи Раздачи по тегам Правила Информация Контакты

Мосты у Токо-Ри / The Bridges at Toko-Ri (1954) WEB-DLRip 720p | P, L1

Мосты у Токо-Ри / The Bridges at Toko-Ri (1954) WEB-DLRip 720p | P, L1

Мосты у Токо-Ри / The Bridges at Toko-Ri

Год выпуска: 1954
Страна: США
Жанр: драма, мелодрама, военный
Продолжительность: 01:43:29
Перевод 1: Профессиональный (многоголосый закадровый) Paramount Channel
Перевод 2: Одноголосый закадровый
Оригинальная аудиодорожка: Английская
Cубтитры: Русские, английские (полные, для слабослышащих)
Режиссер: Марк Робсон / Mark Robson
В ролях: Уильям Холден, Грэйс Келли, Фредрик Марч, Микки Руни, Роберт Штраусс, Чарльз МакГроу, Кэйко Авадзи, Эрл Холлиман, Ричард Шеннон, Уиллис Бучи
Описание:
Действие фильма происходит во время Корейской войны. В центре повествования лейтенант ВМС США Гарри Брубейкер. Гарри — бывший юрист, пошедший на службу в армии. Дома его ждет красавица жена и двое маленьких дочек. Гарри уже устал от войны и думает, как вернуться домой. Но как военный человек он должен исполнять приказы и служить своей стране.
После неудачного приземления, Гарри получает увольнительную на неделю, как раз в то время когда его жена, с дочками преодолев запреты, приехала в Японию. Но, проведя неделю с семьей, Гарри надо возвращаться к службе, чтобы принять участие в опасном, но важном военном задании — разгромить стратегические мосты у Токо-Ри на территории Северной Кореи. Задание очень опасное, и Гарри понимает, что оно может стать последним в его жизни.


Качество: WEB-DLRip 720p
Контейнер: MKV
Видео: AVC (x264), 956x720, 23.976 fps, 5000 kbps
Аудио 1: Русский AC3 2.0, 48 kHz, 192 kbps - Paramount Channel
Аудио 2: Русский AC3 2.0, 48 kHz, 192 kbps - VO
Аудио 3: Английский EAC3 2.0, 48 kHz, 224 kbps
MediaInfo

x264 [info]: frame I:995 Avg QP:17.44 size:147087
x264 [info]: frame P:30768 Avg QP:20.59 size: 53737
x264 [info]: frame B:117093 Avg QP:22.40 size: 17767
Общее
Уникальный идентификатор : 224377925914207006225846049977797974590 (0xA8CD9DDBF9039D129F03E13EFA841A3E)
Полное имя : E:Мои рипыМосты у Токо-Ри 1954_WEB-DLRip 720_KORSAR.mkv
Формат : Matroska
Версия формата : Version 2
Размер файла : 4,06 Гбайт
Продолжительность : 1 ч. 43 м.
Общий поток : 5611 Кбит/сек
Название фильма : The Bridges at Toko-Ri / Мосты у Токо-Ри (1954)
Дата кодирования : UTC 2017-11-12 07:50:35
Программа кодирования : mkvmerge v5.8.0 ('No Sleep / Pillow') built on Sep 2 2012 15:37:04
Библиотека кодирования : libebml v1.2.3 + libmatroska v1.3.0
Обложка : Yes
Attachments : cover.jpg
Видео
Идентификатор : 1
Формат : AVC
Формат/Информация : Advanced Video Codec
Профиль формата : High@L4.1
Настройки формата : CABAC / 12 Ref Frames
Параметр CABAC формата : Да
Параметр RefFrames формата : 12 кадров
Идентификатор кодека : V_MPEG4/ISO/AVC
Продолжительность : 1 ч. 43 м.
Битрейт : 5000 Кбит/сек
Ширина : 956 пикселей
Высота : 720 пикселей
Соотношение сторон : 4:3
Режим частоты кадров : Постоянный
Частота кадров : 23,976 (24000/1001) кадра/сек
Цветовое пространство : YUV
Субдискретизация насыщенности : 4:2:0
Битовая глубина : 8 бит
Тип развёртки : Прогрессивная
Бит/(Пиксели*Кадры) : 0.303
Размер потока : 3,54 Гбайт (87%)
Библиотека кодирования : x264 core 152 r2851kMod ba24899
Настройки программы : cabac=1 / ref=12 / deblock=1:-2:-2 / analyse=0x3:0x113 / me=umh / subme=11 / psy=1 / fade_compensate=0.00 / psy_rd=1.05:0.10 / mixed_ref=1 / me_range=48 / chroma_me=1 / trellis=2 / 8x8dct=1 / cqm=0 / deadzone=21,11 / fast_pskip=0 / chroma_qp_offset=-3 / threads=12 / lookahead_threads=2 / sliced_threads=0 / nr=0 / decimate=0 / interlaced=0 / bluray_compat=0 / constrained_intra=0 / bframes=9 / b_pyramid=2 / b_adapt=2 / b_bias=0 / direct=3 / weightb=1 / open_gop=0 / weightp=2 / keyint=240 / keyint_min=23 / scenecut=40 / intra_refresh=0 / rc_lookahead=40 / rc=2pass / mbtree=0 / bitrate=5000 / ratetol=1.0 / qcomp=0.60 / qpmin=0 / qpmax=39 / qpstep=4 / cplxblur=20.0 / qblur=0.5 / vbv_maxrate=50000 / vbv_bufsize=62500 / nal_hrd=none / filler=0 / ip_ratio=1.40 / pb_ratio=1.30 / aq=2:1.00
Язык : English
Default : Да
Forced : Нет
Цветовой диапазон : Limited
Основные цвета : BT.709
Характеристики трансфера : BT.709
Коэффициенты матрицы : BT.709
Аудио #1
Идентификатор : 2
Формат : AC-3
Формат/Информация : Audio Coding 3
Параметр Endianness формата : Big
Идентификатор кодека : A_AC3
Продолжительность : 1 ч. 43 м.
Вид битрейта : Постоянный
Битрейт : 192 Кбит/сек
Каналы : 2 канала
Расположение каналов : Front: L R
Частота : 48,0 КГц
Частота кадров : 31,250 кадров/сек (1536 SPF)
Битовая глубина : 16 бит
Метод сжатия : С потерями
Размер потока : 142 Мбайт (3%)
Заголовок : MVO – Paramount Channel
Язык : Russian
Default : Да
Forced : Нет
Аудио #2
Идентификатор : 3
Формат : AC-3
Формат/Информация : Audio Coding 3
Параметр Endianness формата : Big
Идентификатор кодека : A_AC3
Продолжительность : 1 ч. 43 м.
Вид битрейта : Постоянный
Битрейт : 192 Кбит/сек
Каналы : 2 канала
Расположение каналов : Front: L R
Частота : 48,0 КГц
Частота кадров : 31,250 кадров/сек (1536 SPF)
Битовая глубина : 16 бит
Метод сжатия : С потерями
Размер потока : 142 Мбайт (3%)
Заголовок : AVO
Язык : Russian
Default : Нет
Forced : Нет
Аудио #3
Идентификатор : 4
Формат : E-AC-3
Формат/Информация : Enhanced Audio Coding 3
Параметр Endianness формата : Big
Идентификатор кодека : A_EAC3
Продолжительность : 1 ч. 43 м.
Вид битрейта : Постоянный
Битрейт : 224 Кбит/сек
Каналы : 2 канала
Расположение каналов : Front: L R
Частота : 48,0 КГц
Частота кадров : 187,500 кадров/сек (256 SPF)
Метод сжатия : С потерями
Размер потока : 166 Мбайт (4%)
Заголовок : Original
Язык : English
Default : Нет
Forced : Нет
Текст #1
Идентификатор : 5
Формат : UTF-8
Идентификатор кодека : S_TEXT/UTF8
Идентификатор кодека/Информация : UTF-8 Plain Text
Язык : Russian
Default : Нет
Forced : Нет
Текст #2
Идентификатор : 6
Формат : UTF-8
Идентификатор кодека : S_TEXT/UTF8
Идентификатор кодека/Информация : UTF-8 Plain Text
Язык : English
Default : Нет
Forced : Нет
Текст #3
Идентификатор : 7
Формат : UTF-8
Идентификатор кодека : S_TEXT/UTF8
Идентификатор кодека/Информация : UTF-8 Plain Text
Заголовок : SDH
Язык : English
Default : Нет
Forced : Нет
Меню
00:00:00.000 : en:Korea, November 1952
00:06:44.988 : en:Down Pilot
00:15:48.990 : en:A Question Of Distance
00:20:26.016 : en:Berthing The Carrier
00:25:54.970 : en:Liberty
00:30:31.913 : en:Face Reality
00:36:00.909 : en:A Favor For Mike
00:41:26.985 : en:"Tell me about those bridges"
00:45:23.054 : en:Happy Family
00:54:04.950 : enraspberryhotos
01:01:46.953 : en:Rough Landing
01:07:50.984 : en:Dear Nancy
01:15:33.988 : en:Attack Launched
01:21:54.910 : en:The Secondary Target
01:27:10.892 : en:Crash Landing
01:35:13.958 : en:Last Ditch
Скриншоты

Автор Bot
Категория Зарубежные фильмы
InfoHash A1AD2A402A3338C0E41CB62F8C441FA7947C4540
Файлы (1)
Показать файлы
Трекера
Показать трекера

    Нет комментариев

Войти на сайт

Статистика

  • Всего торрентов: 74266
  • Объёмом: 426.7 Тб
  • Сидов: 2144154
  • Личеров: 185806