Все раздачи Раздачи по тегам Правила Информация Контакты

Клинок Бессмертного / Mugen no junin (2017) HDRip-AVC | L1

Клинок Бессмертного / Mugen no junin (2017) HDRip-AVC | L1

Информация о фильме
Название: Клинок Бессмертного
Оригинальное название: Mugen no junin
Год выпуска: 2017
Жанр: Боевик, драма, история
Выпущено: Япония, Великобритания, Warner Bros., Oriental Light and Magic , Recorded Picture Company
Продолжительность: 02:20:58
Перевод: BadBajo
Озвучивание: Любительское одноголосое (BadBajo)
Режиссер: Такаси Миике
В ролях: Такуя Кимура, Хана Сугисаки, Сота Фукуси, Хаято Итихара, Эрика Тода, Казуки Китамура, Тиаки Курияма, Синносукэ Мицусима, Кэн Канэко, Ёко Ямамото
Описание:
Самурай Мандзи случайно убил мужа сестры, после чего та немного подвинулась умом. Больше у девушки никого на свете нет, поэтому старший брат живёт только для того, чтобы её защищать. Однажды злодеи убивают сестру и калечат Мандзи, который желает лишь одного — смерти, но рядом вдруг оказывается странная старушка. Она заражает самурая кровяными червями — загадочными паразитами, которые делают своего носителя бессмертным, затягивая раны и восстанавливая отрубленные конечности. 80 лет спустя та же старушка направляет к самураю девушку, желающую отомстить за смерть отца. Девушку, как две капли воды похожую на покойную сестру Мандзи.


Файл
Формат: MKV
Качество: HDRip (AVC)
Видео: MPEG-4 AVC, 1024x428 (2.40:1), 23.976 fps, ~1750 kbps avg, 0.167 bit/pixel
Аудио1: 48 kHz, AC3 Dolby Digital, 3/2 (L,C,R,l,r) + LFE ch, ~448 kbps - Rus
Аудио2: 48 kHz, AC3 Dolby Digital, 3/2 (L,C,R,l,r) + LFE ch, ~384 kbps - Японский
Субтитры: Английские
Интересно
Ката́на (яп. 刀) — длинная японская сабля (дайтоsmile. В современном японском слово «катана» также обозначает любой меч. В китайском слово обозначает «сабля», в японском «изогнутый меч с односторонним клинком». По форме клинка катана напоминает шашку, однако рукоять у неё прямая и длинная, что позволяет использовать двуручный хват. Навершие отсутствует. Небольшой изгиб клинка и острый конец позволяют наносить также и колющие удары.
Длина клинка — от 2 до 2,5 сяку (60,6-75,7 см), общая длина с рукоятью условно ≈ 85-105 см (обычно 90-100 см). Если длина клинка меньше 2 сяку, то это короткий меч вакидзаси, а если больше 2,5 сяку, то окатана (большая катана) или тати, но помимо размера, тати традиционно имеет больший изгиб и другую отделку с креплением (Аси) к доспехам (Википедия).
"Клинок Бессмертного" - это 100-й фильм режиссера Такаси Миике.

Без какой-либо рекламы
MI
General
Unique ID : 204389876832373048784407871483831859044 (0x99C40EF4189037DFBBCAB8F1110F3764)
Complete name : D:Blade.of.the.Immortal.2017.AVO.BadBajo.HDRip.AVC.ExKinoRay.mkv
Format : Matroska
Format version : Version 2
File size : 2.54 GiB
Duration : 2 h 21 min
Overall bit rate : 2 579 kb/s
Movie name : Blade of the Immortal 2017 from ExKinoRay
Encoded date : UTC 2017-11-12 23:26:04
Writing application : mkvmerge v5.6.0 ('Kenya Kane') built on May 27 2012 16:44:04
Writing library : libebml v1.2.3 + libmatroska v1.3.0
Video
ID : 1
Format : AVC
Format/Info : Advanced Video Codec
Format profile : High@L4.1
Format settings, CABAC : Yes
Format settings, ReFrames : 13 frames
Codec ID : V_MPEG4/ISO/AVC
Duration : 2 h 21 min
Bit rate : 1 750 kb/s
Width : 1 024 pixels
Height : 428 pixels
Display aspect ratio : 2.40:1
Frame rate mode : Constant
Frame rate : 23.976 (23976/1000) FPS
Color space : YUV
Chroma subsampling : 4:2:0
Bit depth : 8 bits
Scan type : Progressive
Bits/(Pixel*Frame) : 0.167
Stream size : 1.67 GiB (66%)
Title : Enigma
Writing library : x264 core 152 r2851 ba24899
Encoding settings : cabac=1 / ref=13 / deblock=1:-2:-3 / analyse=0x3:0x113 / me=umh / subme=10 / psy=1 / psy_rd=1.00:0.05 / mixed_ref=1 / me_range=32 / chroma_me=1 / trellis=2 / 8x8dct=1 / cqm=0 / deadzone=21,11 / fast_pskip=1 / chroma_qp_offset=-3 / threads=12 / lookahead_threads=3 / sliced_threads=0 / nr=0 / decimate=0 / interlaced=0 / bluray_compat=0 / constrained_intra=0 / bframes=10 / b_pyramid=2 / b_adapt=2 / b_bias=0 / direct=3 / weightb=1 / open_gop=0 / weightp=2 / keyint=240 / keyint_min=23 / scenecut=40 / intra_refresh=0 / rc_lookahead=40 / rc=2pass / mbtree=0 / bitrate=1750 / ratetol=1.0 / qcomp=0.64 / qpmin=0 / qpmax=51 / qpstep=4 / cplxblur=20.0 / qblur=0.5 / vbv_maxrate=50000 / vbv_bufsize=62500 / nal_hrd=none / filler=0 / ip_ratio=1.40 / pb_ratio=1.30 / aq=3:0.90
Language : English
Default : Yes
Forced : No
Color range : Limited
Color primaries : BT.709
Transfer characteristics : BT.709
Matrix coefficients : BT.709
Audio #1
ID : 2
Format : AC-3
Format/Info : Audio Coding 3
Mode extension : CM (complete main)
Format settings, Endianness : Big
Codec ID : A_AC3
Duration : 2 h 21 min
Bit rate mode : Constant
Bit rate : 448 kb/s
Channel(s) : 6 channels
Channel positions : Front: L C R, Side: L R, LFE
Sampling rate : 48.0 kHz
Frame rate : 31.250 FPS (1536 spf)
Compression mode : Lossy
Stream size : 453 MiB (17%)
Title : AVO (BadBajo)
Language : Russian
Default : Yes
Forced : No
Audio #2
ID : 3
Format : AC-3
Format/Info : Audio Coding 3
Mode extension : CM (complete main)
Format settings, Endianness : Big
Codec ID : A_AC3
Duration : 2 h 21 min
Bit rate mode : Constant
Bit rate : 384 kb/s
Channel(s) : 6 channels
Channel positions : Front: L C R, Side: L R, LFE
Sampling rate : 48.0 kHz
Frame rate : 31.250 FPS (1536 spf)
Compression mode : Lossy
Stream size : 388 MiB (15%)
Language : Japanese
Default : No
Forced : No
Text
ID : 4
Format : UTF-8
Codec ID : S_TEXT/UTF8
Codec ID/Info : UTF-8 Plain Text
Language : English
Default : No
Forced : No
Menu
00:00:00.000 : en:Chapter 01
00:11:51.168 : en:Chapter 02
00:25:10.675 : en:Chapter 03
00:42:28.254 : en:Chapter 04
00:52:53.420 : en:Chapter 05
01:01:27.684 : en:Chapter 06
01:16:27.583 : en:Chapter 07
01:28:38.855 : en:Chapter 08
01:36:22.109 : en:Chapter 09
01:45:16.518 : en:Chapter 10
02:01:52.013 : en:Chapter 11
02:16:54.080 : en:Chapter 12
02:20:57.073 : en:Chapter 13


Релиз от:
Автор релиза:
Автор Bot
Категория Зарубежные фильмы
InfoHash 1CA007E45B890975FC3798BD314A4A39732549CE
Файлы (1)
Показать файлы
Трекера
Показать трекера
Похожие раздачи

    Нет комментариев

Войти на сайт

Статистика

  • Всего торрентов: 86190
  • Объёмом: 510.9 Тб
  • Сидов: 2601710
  • Личеров: 164074