A PHP Error was encountered

Severity: Notice

Message: Trying to get property 'id' of non-object

Filename: controllers/Torrent.php

Line Number: 25

Backtrace:

File: /home/torr/www/application/controllers/Torrent.php
Line: 25
Function: _error_handler

File: /home/torr/www/public/index.php
Line: 317
Function: require_once

Отважная / The Brave One (2007) BDRemux 1080p | D, A | 16.7 Гб - ToRR.ws

Подождите, загружаю...

Все раздачи Раздачи по тегам Правила Информация Контакты

Отважная / The Brave One (2007) BDRemux 1080p | D, A

Отважная / The Brave One (2007) BDRemux 1080p | D, A

Отважная / The Brave One
«Семь раз отмерь, один... пристрели»

✧ Год выхода: 2007
Жанр: триллер, драма, криминал
✧ Выпущено: США, Австралия
✧ Продолжительность: 02:02:18
✧ Перевод: Дублированный, авторский одноголосый
✧ Режиссер: Нил Джордан
✧ В ролях: Джоди Фостер, Нэвин Эндрюс, Джейн Адамс, Даг Агирр, Маргарет Бэйкер, Бретт Берг, James Biberi, Анджело Бонсигнор, Майкл Дж. Бёрг, Джек Карузо, Игорь Черкасский, Доминик Чикко, Берн Коэн, Брайан Дилейт, Дэна Эскелсон, Ларри Фесенден, Блэйз Фостер, Дэннис Фанни, Фрэнк Хансен, Анна Маргарет Холлиман, Джернел Ховард
✧ О фильме:
Ведущая нью-йоркского радио Эрика Бэйн едва оправилась от жестокого нападения, которое стоило жизни ее жениху... Она принимается бродить по улицам ночного города в поисках преступников, виновных в ее несчастье, и жестоко мстит им. В то время как жители города восторгаются ее анонимными подвигами, полиция пытается ее найти. Преследуемая упорным детективом, Эрика спрашивает себя: действительно ли ее карающий крестовый поход является правильным решением?

Файл
✧ Качество: BDRemux 1080p
✧ Контейнер: MKV
✧ Видео: 1920x1080 (16:9), 23.976 fps, VC-1, 17027 kbps
✧ Аудио 1: Russian: AC3 / 5.1 / 48 kHz / 384 kbps |DUB, R5|
✧ Аудио 2: Russian: AC3 / 5.1 / 48 kHz / 384 kbps |AVO, Ю. Немахов|
✧ Аудио 3: English: DTS-HD МА / 5.1 / 48 kHz / 1722 kbps (DTS Core: 5.1 / 48 kHz / 768 kbps / 16-bit) |Оригинал|
✧ Субтитры: Русские, английские
✧ Навигация по главам: есть
Награды
Золотой глобус, 2008 год
• Номинации 1:
• Лучшая женская роль (Джоди Фостер)
Скриншоты

MediaInfo
Общее
Уникальный идентификатор : 252779642319455522471285882093014275896 (0xBE2B9697629674D8AF0F692163FED738)
Полное имя : The.Brave.One.2007.BDRemux.1080p.mkv
Формат : Matroska
Версия формата : Version 2
Размер файла : 16,7 Гбайт
Продолжительность : 2 ч. 2 м.
Общий поток : 19,5 Мбит/сек
Название фильма : The Brave One (2007)
Дата кодирования : UTC 2013-07-22 18:36:45
Программа кодирования : mkvmerge v4.9.1 ('Ich will') сборка от Jul 11 2011 23:53:15
Библиотека кодирования : libebml v1.2.1 + libmatroska v1.1.1
Обложка : Yes
Attachments : TBO_Cover.jpg
Видео
Идентификатор : 1
Формат : VC-1
Профиль формата : Advanced@L3
Идентификатор кодека : V_MS/VFW/FOURCC / WVC1
Идентификатор кодека/Подсказка : Microsoft
Продолжительность : 2 ч. 2 м.
Ширина : 1920 пикселей
Высота : 1080 пикселей
Соотношение сторон : 16:9
Режим частоты кадров : Постоянный
Частота кадров : 23,976 (24000/1001) кадра/сек
Цветовое пространство : YUV
Субдискретизация насыщенности : 4:2:0
Битовая глубина : 8 бит
Тип развёртки : Прогрессивная
Метод сжатия : С потерями
Заголовок : The Brave One (2007) BD25 1080p VC-1
Язык : English
Default : Да
Forced : Нет
Аудио #1
Идентификатор : 2
Формат : AC-3
Формат/Информация : Audio Coding 3
Параметр Endianness формата : Big
Идентификатор кодека : A_AC3
Продолжительность : 2 ч. 2 м.
Вид битрейта : Постоянный
Битрейт : 384 Кбит/сек
Каналы : 6 каналов
Расположение каналов : Front: L C R, Side: L R, LFE
Частота : 48,0 КГц
Частота кадров : 31,250 кадров/сек (1536 SPF)
Битовая глубина : 16 бит
Метод сжатия : С потерями
Задержка видео : 3 мс.
Размер потока : 336 Мбайт (2%)
Заголовок : Dub
Язык : Russian
Default : Да
Forced : Нет
Аудио #2
Идентификатор : 3
Формат : AC-3
Формат/Информация : Audio Coding 3
Параметр Endianness формата : Big
Идентификатор кодека : A_AC3
Продолжительность : 2 ч. 2 м.
Вид битрейта : Постоянный
Битрейт : 384 Кбит/сек
Каналы : 6 каналов
Расположение каналов : Front: L C R, Side: L R, LFE
Частота : 48,0 КГц
Частота кадров : 31,250 кадров/сек (1536 SPF)
Битовая глубина : 16 бит
Метод сжатия : С потерями
Размер потока : 336 Мбайт (2%)
Заголовок : Юрий Немахов
Язык : Russian
Default : Нет
Forced : Нет
Аудио #3
Идентификатор : 4
Формат : DTS
Формат/Информация : Digital Theater Systems
Профиль формата : MA / Core
Режим : 16
Параметр Endianness формата : Big
Идентификатор кодека : A_DTS
Продолжительность : 2 ч. 2 м.
Вид битрейта : Переменный / Постоянный
Битрейт : Неизвестно / 768 Кбит/сек
Каналы : 6 каналов
Расположение каналов : Front: L C R, Side: L R, LFE
Частота : 48,0 КГц
Частота кадров : 93,750 кадра/сек (512 SPF)
Битовая глубина : 16 бит
Метод сжатия : Без потерь / Lossy
Язык : English
Default : Нет
Forced : Нет
Текст #1
Идентификатор : 5
Формат : UTF-8
Идентификатор кодека : S_TEXT/UTF8
Идентификатор кодека/Информация : UTF-8 Plain Text
Язык : Russian
Default : Нет
Forced : Нет
Текст #2
Идентификатор : 6
Формат : UTF-8
Идентификатор кодека : S_TEXT/UTF8
Идентификатор кодека/Информация : UTF-8 Plain Text
Язык : English
Default : Нет
Forced : Нет
Меню
00:00:00.000 : en:On-Air Credits
00:03:41.054 : en:The Whole Deal
00:08:28.341 : enraspberryark Attack
00:11:01.411 : en:Doing Our Thing
00:14:48.888 : en:Doesn't Feel Like That
00:17:45.398 : en:Invaded Dreams
00:21:57.149 : en:I Realize How Difficult
00:26:17.242 : en:Illegal Purchase
00:30:02.634 : en:You Don't Let Go
00:32:18.103 : en:Corner Store
00:35:52.650 : en:Stranger Inside
00:40:40.605 : en:When It Touches You
00:45:35.650 : en:Subway Targets
00:49:31.802 : en:Every Bullet Hit Home
00:53:37.548 : en:Gone and Back Now
00:57:59.643 : en:Become Someone Else
01:02:51.768 : en:Backseat Show
01:06:50.506 : en:Windshield Wipeout
01:08:55.131 : en:Audience Profile
01:14:33.469 : en:When You Can't Sleep
01:17:39.154 : en:Going to Leave a Scar
01:22:34.283 : en:Friend at an Interview
01:27:30.745 : en:Just the Face
01:30:28.757 : en:The Lineup
01:35:59.587 : en:Someone Close to Me
01:40:36.030 : enraspberryrivate Searches
01:43:05.513 : en:Getting the Message
01:47:22.936 : en:90 Clayton Ave
01:50:52.813 : en:I Have the Right
01:53:26.967 : en:Never a Vigilante
01:58:14.087 : en:End Credits
Автор Bot
Категория Зарубежные фильмы
InfoHash EC4A61B5E5583F54D0AF5476DFD8DD12A54FC585
Файлы (1)
Показать файлы
Трекера
Показать трекера
Похожие раздачи
Название Добавлен Размер Сид Лич
Отважная / The Brave One (2007) BDRip-AVC | D 21/01/2018 1.5 Гб 4 2

    Нет комментариев

Войти на сайт

Статистика

  • Всего торрентов: 73745
  • Объёмом: 423.3 Тб
  • Сидов: 2094369
  • Личеров: 168725